<?xml version="1.0" standalone="no"?>
<!DOCTYPE svg PUBLIC "-//W3C//DTD SVG 1.1//EN" "http://www.w3.org/Graphics/SVG/1.1/DTD/svg11.dtd" >
<svg xmlns="http://www.w3.org/2000/svg">
<metadata>
Created by FontForge 20100429 at Thu Sep 20 22:09:47 2012
 By root
Copyright (C) 2012 by original authors @ fontello.com
</metadata>
<defs>
<font id="icons" horiz-adv-x="947" >
  <font-face
    font-family="icons"
    font-weight="500"
    font-stretch="normal"
    units-per-em="1000"
    panose-1="2 0 6 3 0 0 0 0 0 0"
    ascent="800"
    descent="-200"
    bbox="-0.666667 -200.023 1350 801.8"
    underline-thickness="50"
    underline-position="-100"
    unicode-range="U+002B-1F6AB"
  />
<missing-glyph horiz-adv-x="364"
d="M33 0v666h265v-666h-265zM66 33h199v600h-199v-600z" />
    <glyph glyph-name=".notdef" horiz-adv-x="364"
d="M33 0v666h265v-666h-265zM66 33h199v600h-199v-600z" />
    <glyph glyph-name=".null" horiz-adv-x="0"
 />
    <glyph glyph-name="nonmarkingreturn" horiz-adv-x="333"
 />
    <glyph glyph-name="plus" unicode="+" horiz-adv-x="610"
d="M565 350q19 0 24.5 -12.5t5.5 -37.5q0 -17 -1.5 -26t-8.5 -16.5t-20 -7.5h-210v-210q0 -19 -12.5 -24.5t-37.5 -5.5q-17 0 -26 1.5t-16.5 8.5t-7.5 20v210h-210q-19 0 -24.5 12.5t-5.5 37.5q0 17 1.5 26t8.5 16.5t20 7.5h210v210q0 19 12.5 24.5t37.5 5.5q17 0 26 -1.5
t16.5 -8.5t7.5 -20v-210h210z" />
    <glyph glyph-name="hyphen" unicode="-" horiz-adv-x="610"
d="M565 350q19 0 24.5 -12.5t5.5 -37.5q0 -17 -1.5 -26t-8.5 -16.5t-20 -7.5h-520q-19 0 -24.5 12.5t-5.5 37.5q0 17 1.5 26t8.5 16.5t20 7.5h520z" />
    <glyph glyph-name="at" unicode="@" horiz-adv-x="923"
d="M849 516q25 -64 25 -138q0 -103 -46 -182q-59 -92 -163 -92q-43 0 -70 21q-21 15 -30 36q-43 -55 -114 -55q-81 0 -122 58q-41 52 -41 141q0 91 48 147q53 64 142 64q52 0 90 -37l7 26h85l-18 -259q-2 -32 9 -44q7 -7 20 -7q35 0 60 34.5t34 73.5t9 75q0 108 -68 176
q-75 76 -208 76q-128 0 -214 -76q-102 -92 -102 -245q0 -133 86 -221q81 -82 204 -82q137 0 242 46l15 8v-96l-7 -3q-101 -50 -251 -50q-165 0 -269 97q-123 112 -123 308q0 182 116 294q57 56 133 84q77 31 168 31q178 0 284 -106q46 -44 69 -103zM465 199q46 0 69 40
q17 31 17 85q0 45 -16 74q-20 28 -60 28q-44 0 -64 -38q-19 -33 -19 -83q0 -23 4 -43.5t21.5 -41.5t47.5 -21z" />
    <glyph glyph-name="h" unicode="h" horiz-adv-x="1228"
d="M281 54q0 56 32 138q56 164 76 215q31 82 51 144h-25h-31h-26q-51 10 -51 51q0 51 51 51h564q51 0 51 -51q0 -41 -36 -47q-15 -5 -31 -4h-15h-20h-32q11 -41 52 -144q61 -164 77 -210q30 -92 30 -143q0 -46 -40 -87q-31 -31 -87 -31h-461q-51 0 -93 31q-36 46 -36 87z
M481 345h318l-67 206h-184z" />
    <glyph glyph-name="uni2139" unicode="&#x2139;" horiz-adv-x="490"
d="M367 800q48 0 74 -28t26 -70q0 -50 -39 -88t-95 -38q-47 0 -73.5 27t-25.5 73q0 45 36 84.5t97 39.5zM160 -200q-29 0 -45.5 13.5t-22.5 52.5t14 110l60 255q15 57 0 57q-13 0 -54.5 -18t-70.5 -38l-26 44q91 77 190 125t150 48q26 0 38.5 -20t11 -55.5t-14.5 -85.5
l-69 -268q-16 -63 5 -63q15 0 49.5 16t69.5 44l30 -41q-84 -86 -175 -131t-140 -45z" />
    <glyph glyph-name="arrowleft" unicode="&#x2190;" horiz-adv-x="789"
d="M0 329q0 20 15 35l345 346q15 15 35 15t34 -15l52 -52q15 -14 15 -34t-15 -35l-174 -174h433q21 0 35 -14t14 -35v-74q0 -20 -14 -34t-34 -14h-434l174 -174q15 -15 15 -35t-15 -34l-52 -52q-14 -15 -34 -15t-35 15l-345 345q-15 15 -15 35z" />
    <glyph glyph-name="arrowup" unicode="&#x2191;" horiz-adv-x="789"
d="M-0.5 329q-0.5 20 14.5 35l346 345q15 15 35 15t34 -15l346 -345q14 -15 14 -35t-14 -35l-52 -51q-15 -15 -34.5 -15t-33.5 15l-175 173v-433q0 -20 -14 -34.5t-34 -14.5h-74q-21 0 -35 14.5t-14 34.5v433l-173 -173q-15 -15 -35 -15t-35 15l-51 51q-15 15 -15.5 35z" />
    <glyph glyph-name="arrowright" unicode="&#x2192;" horiz-adv-x="789"
d="M0 293v74q0 20 14 34t34 14h434l-174 174q-14 15 -14 35t14 34l52 52q15 15 35 15t34 -15l346 -346q14 -15 14 -34.5t-14 -34.5l-346 -346q-14 -15 -34 -15t-35 15l-52 52q-14 14 -14 34t14 35l174 174h-434q-20 0 -34 14t-14 35z" />
    <glyph glyph-name="arrowdown" unicode="&#x2193;" horiz-adv-x="789"
d="M0 328q0 20 15 35l51 51q15 15 35 15t35 -15l173 -173v433q0 20 14.5 34.5t34.5 14.5h74q21 0 34.5 -14.5t13.5 -34.5v-433l175 173q14 15 33.5 15t34.5 -15l53 -51q15 -15 15 -35t-15 -35l-347 -345q-14 -15 -34 -15t-35 15l-345 345q-15 15 -15 35z" />
    <glyph glyph-name="house" unicode="&#x2302;" horiz-adv-x="930"
d="M903 285q16 -16 11 -27.5t-28 -11.5h-83v-308q0 -14 -1.5 -21t-8.5 -13.5t-22 -6.5h-204v310h-204v-310h-195q-19 0 -28.5 6.5t-11 13.5t-1.5 21v308h-83q-23 0 -28 11.5t11 27.5l401 401q16 16 37 16t37 -16z" />
    <glyph glyph-name="uni25B4" unicode="&#x25b4;" horiz-adv-x="490"
d="M15 100l230 400l230 -400h-460z" />
    <glyph glyph-name="uni25B8" unicode="&#x25b8;" horiz-adv-x="430"
d="M15 530l400 -230l-400 -230v460z" />
    <glyph glyph-name="uni25BE" unicode="&#x25be;" horiz-adv-x="490"
d="M475 500l-230 -400l-230 400h460z" />
    <glyph glyph-name="uni25C2" unicode="&#x25c2;" horiz-adv-x="430"
d="M415 530v-460l-400 230z" />
    <glyph glyph-name="uni2601" unicode="&#x2601;" horiz-adv-x="1291"
d="M1292 155q0 -100 -68 -173.5t-167 -80.5v-1h-783v1q-7 -1 -19 -1q-106 0 -180.5 74.5t-74.5 180.5q0 66 33.5 124.5t90.5 92.5q-7 29 -7 56q0 106 74.5 180.5t180.5 74.5q92 0 167 -63q39 82 116 131t167 49q129 0 221 -92t92 -221q0 -50 -15 -93q77 -26 124.5 -92.5
t47.5 -146.5z" />
    <glyph glyph-name="uni2611" unicode="&#x2611;"
d="M0 92v474q0 32 12.5 61t33.5 50t50 34t62 13h553q13 0 26 -3l-96 -96h-483q-24 0 -41.5 -17.5t-17.5 -41.5v-474q0 -24 17.5 -41.5t41.5 -17.5h553q24 0 41 17.5t17 41.5v167l99 99v-266q0 -33 -12.5 -61t-34 -50t-50 -34.5t-60.5 -12.5h-553q-33 0 -62 12.5t-50 34.5
t-33.5 50t-12.5 61zM198 431q0 17 11 28l51 51q12 12 28.5 12t28.5 -12l175 -175l335 337q12 12 29.5 12t28.5 -12l51 -50q11 -12 11 -29t-11 -28l-365 -366l-51 -50q-12 -12 -28.5 -12t-28.5 12l-51 50l-203 204q-11 11 -11 28z" />
    <glyph glyph-name="uni2661" unicode="&#x2661;" horiz-adv-x="880"
d="M795 591q70 -65 70 -156t-70 -156l-355 -330l-355 330q-70 65 -70 156t70 156q62 58 149.5 58t149.5 -58l56 -52l56 52q62 58 149.5 58t149.5 -58zM743 330q42 38 42 105t-37 100q-42 39 -102 39q-49 0 -102 -49l-104 -91l-104 91q-53 49 -102 49q-60 0 -102 -39
q-37 -33 -37 -100t42 -105l303 -286z" />
    <glyph glyph-name="heart" unicode="&#x2665;" horiz-adv-x="890"
d="M804 591q70 -65 70 -156t-70 -156l-359 -330l-359 330q-70 65 -70 156t70 156q63 58 151 58t151 -58l57 -52l57 52q63 58 151 58t151 -58z" />
    <glyph glyph-name="uni2691" unicode="&#x2691;"
d="M0 645q0 32 23 55.5t56 23.5t56 -23.5t23 -55.5q0 -21 -10.5 -38.5t-28.5 -29.5v-623q0 -8 -6 -14t-14 -6h-40q-8 0 -13.5 6t-5.5 14v623q-18 12 -29 29.5t-11 38.5zM158 148v383q0 17 10 34t25 25q53 28 96.5 44t73.5 23q36 9 64 10q35 0 64 -6t55.5 -15.5t51.5 -21.5
l50 -27q33 -14 75 -16q36 -3 84.5 7t106.5 45q14 9 23.5 3.5t9.5 -22.5v-384q0 -16 -9.5 -33.5t-23.5 -25.5q-58 -35 -106.5 -45t-84.5 -8q-42 3 -75 17l-50 27q-25 12 -51.5 21.5t-55.5 15.5t-64 6q-28 -1 -64 -10q-30 -7 -73.5 -23t-96.5 -45q-15 -9 -25 -2.5t-10 23.5z
" />
    <glyph glyph-name="uni2699" unicode="&#x2699;" horiz-adv-x="787"
d="M0 271v117q0 7 7 9q20 6 42 9t43 5q4 0 8 0.5t9 1.5l11 29q6 14 14 29l-28 39q-15 20 -32 39q-6 5 0 13q20 24 42 46t46 42q5 5 13 0q11 -12 23.5 -21.5t24.5 -17.5q8 -5 15 -11t15 -11q27 15 58 24q3 30 6 54.5t8 47.5q2 9 10 9h117q9 0 9 -9q4 -20 7 -40l6 -41l3 -21
q15 -5 29 -10.5t28 -13.5l14 10l12 10l28 19q13 10 26 22q6 6 12 -1l12 -12q5 -5 11 -10l32 -31l31 -34q4 -7 0 -13q-14 -16 -28 -35l-31 -42q15 -30 25 -61q13 -3 26 -4.5t27 -3.5q11 -2 24 -4l25 -4q7 -2 7 -9v-117q0 -7 -7 -10q-19 -5 -40 -7.5t-42 -4.5q-5 -1 -10 -1.5
t-10 -1.5q-5 -15 -11 -29l-13 -29q12 -18 27.5 -38.5t32.5 -39.5q5 -5 0 -13q-40 -49 -89 -88q-5 -5 -12 0q-12 11 -24 20.5t-25 18.5q-7 5 -14.5 11t-14.5 11q-28 -15 -58 -24q-2 -25 -6 -51t-10 -51q-2 -9 -9 -9h-117q-8 0 -10 9q-3 20 -5.5 40t-5.5 41l-3 21l-29 10
q-15 5 -28 14l-14 -10l-13 -10q-27 -19 -53 -41q-7 -6 -13 1l-11 11l-12 11l-32 31q-15 16 -30 34q-5 7 0 13q16 19 30 39l29 38q-16 30 -26 61q-12 3 -25 4.5t-26 3.5t-26 3.5t-25 4.5q-7 2 -7 9zM275 329q0 -25 9.5 -46.5t25.5 -37.5t37.5 -25.5t46 -9.5t46 9.5t37.5 25.5
t25.5 37.5t9.5 46.5q0 24 -9.5 45.5t-25.5 37.5t-37.5 25.5t-46 9.5t-46 -9.5t-37.5 -25.5t-25.5 -37.5t-9.5 -45.5z" />
    <glyph glyph-name="uni26A0" unicode="&#x26a0;" horiz-adv-x="894"
d="M5.5 -41q-14.5 25 6.5 59l387 671q19 35 48 35q28 0 49 -35l387 -671q20 -34 6 -59t-54 -25h-775q-40 0 -54.5 25zM168 53h558l-279 483zM389 391q0 6 4.5 10.5t9.5 4.5h89q5 0 9 -4.5t4 -10.5l-7 -192q0 -12 -14 -12h-73q-14 0 -14 12zM392 133q0 14 13 14h82
q14 0 14 -14l1 -51q0 -14 -14 -14h-82q-13 0 -13 14z" />
    <glyph glyph-name="uni26A1" unicode="&#x26a1;" horiz-adv-x="430"
d="M55 -150q-4 3 35 92l79 182q40 93 38 99t-94.5 45t-97.5 54q-4 12 84 120.5t179.5 210t96.5 97.5t-74.5 -186t-77.5 -188q1 -3 95 -42.5t97 -56.5q3 -20 -174 -226t-186 -201z" />
    <glyph glyph-name="uni26EF" unicode="&#x26ef;"
d="M0 346v88q0 7 5 7q15 4 31 6l32 4q5 0 8 0.5t7 0.5q6 22 18 44q-9 15 -21 30l-24 29q-5 6 0 10q15 18 31.5 35t34.5 32q6 4 10 -1q8 -8 18 -15l18 -14l23 -16q22 11 44 18q2 22 4.5 41t6.5 37q0 5 7 5h88q7 0 7 -6q3 -15 5.5 -30.5t4.5 -31.5l2 -15q21 -7 43 -18l20 15
l21 15q10 8 19 16q6 4 10 -1q5 -4 9 -8l9 -9l23 -23l24 -26q3 -6 0 -10q-11 -11 -22 -25l-23 -33q6 -11 11 -23l9 -23q8 -2 18 -3t21 -3l19 -2q9 -1 17 -4q7 -2 7 -7v-88q0 -6 -6 -8q-14 -3 -31 -5l-32 -4q-4 0 -14 -2q-7 -21 -18 -43q9 -15 20.5 -30t24.5 -29q4 -6 0 -10
q-15 -18 -31.5 -35t-34.5 -32q-7 -4 -10 1q-8 7 -17.5 14.5t-19.5 13.5q-5 6 -11 9.5t-11 7.5q-22 -11 -44 -18q-2 -18 -4 -38.5t-8 -39.5q-2 -5 -7 -5h-88q-7 0 -7 5q-3 15 -5 31l-4 31l-2 16q-21 7 -43 18l-10 -7q-5 -3 -10 -8l-21 -15q-10 -8 -19 -16q-7 -4 -10 1
q-5 4 -8 8l-10 9l-24 22q-12 12 -23 27q-4 4 0 9q12 14 23.5 29.5t20.5 29.5q-10 21 -19 46q-8 2 -18 3t-21 3l-19 2q-9 1 -19 3q-5 3 -5 8zM207 389q0 -37 26.5 -63.5t63.5 -26.5t63 26.5t26 63.5t-26 63t-63 26t-63.5 -26t-26.5 -63zM552 132q-3 6 4 9l22 8q10 4 22 8
q1 6 1.5 10t2.5 9.5t3.5 9t4.5 8.5q-8 11 -14 21t-13 20q-3 6 2 9l66 59q4 4 9 1l18 -15l19 -16q19 8 37 9q5 11 11 21.5t11 20.5q3 5 8 3l85 -26q5 -3 5 -9q-2 -11 -4.5 -22.5t-4.5 -22.5q9 -6 15 -13.5t12 -16.5q12 1 23.5 1.5t23.5 0.5q5 0 7 -5l19 -87q2 -5 -4 -8
q-11 -5 -21 -9l-23 -7q-1 -6 -1.5 -10t-2.5 -9.5t-4 -9t-4 -7.5l15 -21l12 -20q2 -5 -2 -9l-66 -60q-4 -4 -9 0q-9 8 -18.5 15t-17.5 15q-21 -8 -39 -9l-10 -22l-11 -20q-3 -5 -8 -3l-85 26q-5 3 -5 9q2 11 3.5 23t4.5 23q-15 13 -26 29q-12 -2 -24.5 -3t-23.5 1q-5 0 -8 5z
M589 573q0 5 6 8q10 2 20.5 4.5t21.5 4.5q2 4 3 8.5t3 8.5t5 7t5 8q-6 10 -10 20l-8 20q-2 4 2 8l67 44q5 3 9 -1q8 -7 15 -15l14 -16q17 3 35 3q12 19 25 34q3 4 9 3l72 -36q5 -3 3 -9q-2 -10 -5.5 -19.5t-6.5 -20.5q10 -13 19 -30q11 -1 22 -1.5t22 -2.5q5 -2 5 -7l5 -81
q0 -4 -5 -6q-10 -2 -20 -5l-22 -5q-2 -4 -3 -7.5t-3 -7.5q-3 -8 -9 -15q6 -11 10 -21t8 -19q2 -5 -3 -8l-66 -45q-6 -3 -9 1q-13 13 -29 32q-9 -2 -18 -3t-18 0q-6 -10 -12 -19l-13 -17q-3 -3 -9 -1l-72 36q-6 2 -3 7l6 21q3 10 7 20q-6 6 -11 13.5t-9 16.5q-11 1 -22 1.5
t-22 2.5q-5 0 -5 6zM693 148q-8 -23 3 -44.5t36 -29.5q23 -8 44.5 3t28.5 35q9 23 -2 44.5t-36 30.5q-23 7 -44.5 -4t-29.5 -35zM716.5 528q7.5 -21 27.5 -32q21 -9 42 -2t31 27q10 21 3 42t-27 30q-20 11 -41 3.5t-32 -27.5t-3.5 -41z" />
    <glyph glyph-name="uni2708" unicode="&#x2708;" horiz-adv-x="1030"
d="M282 -170l125 400h-179l-113 -100h-100l80 170l-80 170h100l113 -100h179l-125 400h100l225 -400h258q6 0 16 -0.5t36 -4t46 -10.5t36 -21t16 -34q0 -31 -37.5 -48.5t-75.5 -19.5l-37 -2h-258l-225 -400h-100z" />
    <glyph glyph-name="uni2709" unicode="&#x2709;" horiz-adv-x="930"
d="M45 536q-23 12 -28 33q1 19 25 21h846q33 0 23 -25q-7 -19 -26 -29l-375 -202q-19 -10 -45 -10t-45 10zM896 436q15 4 17 1.5t2 -12.5v-367q0 -16 -17 -32t-33 -16h-800q-16 0 -33 16t-17 32v367q0 10 2 12.5t17 -1.5l386 -202q19 -10 45 -10t45 10z" />
    <glyph glyph-name="uni270D" unicode="&#x270d;"
d="M0 92v474q0 32 12.5 61t33.5 50t50 34t62 13h553q2 0 5 -0.5t5 -0.5l-98 -98h-465q-24 0 -41.5 -17.5t-17.5 -41.5v-474q0 -24 17.5 -41.5t41.5 -17.5h553q24 0 41 17.5t17 41.5v229l99 98v-327q0 -33 -12.5 -61t-34 -50t-50 -34.5t-60.5 -12.5h-553q-33 0 -62 12.5
t-50 34.5t-33.5 50t-12.5 61zM324 101l56 169l335 335l113 -114l-334 -335zM445 257q3 -4 8.5 -4t8.5 4l263 262q10 10 0.5 18.5t-18.5 -0.5l-262 -262q-9 -9 0 -18zM772 662l47 48q15 15 35 15t33 -15l24 -23l23 -23q13 -15 13.5 -34.5t-13.5 -34.5l-49 -47z" />
    <glyph glyph-name="uni2715" unicode="&#x2715;" horiz-adv-x="500"
d="M467 142q17 -17 17 -42t-17 -42t-42 -17t-42 17l-133 151l-133 -151q-17 -17 -42 -17t-42 17t-17 42t17 42l137 158l-137 158q-17 17 -17 42t17 42t42 17t42 -17l133 -151l133 151q17 17 42 17t42 -17t17 -42t-17 -42l-137 -158z" />
    <glyph glyph-name="uni2716" unicode="&#x2716;" horiz-adv-x="870"
d="M435 720q174 0 297 -123t123 -297t-123 -297t-297 -123t-297 123t-123 297t123 297t297 123zM521 300l153 153l-86 86l-153 -153l-153 153l-86 -86l153 -153l-153 -153l86 -87l153 154l153 -153l86 86z" />
    <glyph glyph-name="uni2731" unicode="&#x2731;" horiz-adv-x="733"
d="M1 457q-5 19 5 37l37 64q11 18 30.5 23t37.5 -5l170 -99v197q0 21 14 35.5t36 14.5h72q21 0 35.5 -14.5t14.5 -34.5v-198l170 99q18 10 37.5 5t30.5 -23l35 -64q11 -18 6 -37t-23 -29l-171 -99l171 -99q18 -11 23 -29.5t-5 -36.5l-36 -65q-11 -17 -30.5 -22t-37.5 5
l-170 99v-197q0 -21 -14.5 -35.5t-35.5 -14.5h-72q-22 0 -36 14.5t-14 34.5v198l-170 -99q-18 -11 -37.5 -5.5t-30.5 22.5l-37 65q-9 18 -4.5 36.5t22.5 29.5l172 99l-172 99q-18 10 -23 29z" />
    <glyph glyph-name="uni2753" unicode="&#x2753;" horiz-adv-x="610"
d="M15 476q5 130 77 202t203 72q128 0 214 -62t86 -183q0 -68 -42 -125q-13 -19 -88 -78l-46 -32q-29 -22 -42 -43.5t-14 -60.5q0 -13 -15 -13h-129q-16 0 -16 12q2 52 6.5 79.5t20.5 45.5q17 20 49.5 46t56.5 42l23 16q61 46 61 102q0 44 -25 79q-25 36 -93 36
q-67 0 -94 -44q-28 -45 -28 -91h-165zM292 54q45 -2 73.5 -31t27.5 -75t-31.5 -73t-75.5 -25q-44 2 -72.5 30.5t-27.5 73.5q1 46 31.5 74t74.5 26z" />
    <glyph glyph-name="uni2757" unicode="&#x2757;" horiz-adv-x="789"
d="M0 329q0 82 31 153.5t84.5 125.5t125.5 85t154 31t153.5 -31t125 -85t84.5 -125.5t31 -153.5t-31 -153.5t-84.5 -125.5t-125 -85t-153.5 -31t-154 31t-125.5 85t-84.5 125.5t-31 153.5zM333 579l6 -365q2 -15 16 -15h80q14 0 14 15l8 365q1 6 -4 11q-4 4 -11 4h-95
q-7 0 -10 -4q-4 -4 -4 -11zM336 66q0 -15 15 -15h89q5 0 10 4t5 11v86q0 6 -5 10.5t-10 4.5h-89q-15 0 -15 -15v-86z" />
    <glyph glyph-name="uni2795" unicode="&#x2795;" horiz-adv-x="870"
d="M435 720q174 0 297 -123t123 -297t-123 -297t-297 -123t-297 123t-123 297t123 297t297 123zM486 249h202l-1 102h-201v201h-102v-201h-202v-102h202v-202h102v202z" />
    <glyph glyph-name="uni27A2" unicode="&#x27a2;" horiz-adv-x="890"
d="M863 717q6 -6 9 -12t2.5 -14.5t-2 -15.5t-7.5 -19.5t-12 -23.5l-16 -30l-18 -37q-54 -113 -147 -287l-158 -292l-65 -117l-54 380l-380 54q442 248 696 370l37 18l30 16q11 6 23.5 12t19.5 7.5t15.5 2t14.5 -2.5t12 -9zM772 619l-304 -279l28 -233z" />
    <glyph glyph-name="uni27A6" unicode="&#x27a6;"
d="M0 4q0 107 37 202t112 166t190.5 112.5t273.5 42.5v150q0 37 18 45t46 -18l252 -254q18 -17 18 -42q0 -24 -18 -42l-252 -254q-26 -26 -45 -18t-19 44v170q-135 -1 -237 -29t-172.5 -76t-110.5 -112.5t-51 -139.5q-2 -17 -19 -17h-1q-17 0 -19 17q-3 26 -3 53z" />
    <glyph glyph-name="uni27F2" unicode="&#x27f2;" horiz-adv-x="970"
d="M546 710q169 0 289 -120t120 -290t-120 -290t-289 -120q-140 0 -251 87l70 75q83 -60 181 -60q127 0 217 90.5t90 217.5t-90 217t-217 90q-124 0 -213 -86.5t-93 -210.5h143l-184 -205l-184 205h123q4 167 123 283.5t285 116.5z" />
    <glyph glyph-name="uni27F3" unicode="&#x27f3;" horiz-adv-x="970"
d="M424 710q166 0 285 -116.5t123 -283.5h123l-184 -205l-184 205h143q-4 124 -93 210.5t-213 86.5q-127 0 -217 -90t-90 -217t90 -217.5t217 -90.5q98 0 181 60l70 -75q-111 -87 -251 -87q-169 0 -289 120t-120 290t120 290t289 120z" />
    <glyph glyph-name="uni2B0C" unicode="&#x2b0c;" horiz-adv-x="394"
d="M0.5 131q4.5 12 28.5 12h100v372h-100q-24 0 -28.5 11t12.5 28l158 159q10 11 27 11q16 0 26 -11l158 -159q17 -16 12 -27.5t-29 -11.5h-100v-372h100q24 0 29 -11t-12 -28l-158 -159q-10 -11 -27 -11q-16 0 -26 11l-158 159q-17 15 -12.5 27z" />
    <glyph glyph-name="uni2B0D" unicode="&#x2b0d;" horiz-adv-x="789"
d="M0 310q0 16 11 26l158 159q16 16 27.5 11.5t11.5 -28.5v-101h373v101q0 24 11 28.5t28 -12.5l159 -158q10 -10 10 -26t-10 -26l-159 -159q-16 -17 -27.5 -12t-11.5 29v101h-373v-101q0 -24 -11 -28.5t-28 12.5l-158 158q-11 10 -11 26z" />
    <glyph glyph-name="uni2ECF" unicode="&#x2ecf;" horiz-adv-x="789"
d="M0 -30v102q0 15 10.5 25.5t25.5 10.5h718q14 0 24.5 -10.5t10.5 -25.5v-102q0 -15 -10.5 -25.5t-24.5 -10.5h-718q-15 0 -25.5 10.5t-10.5 25.5zM3 239q-9 23 8 39l358 359q11 11 25.5 11t25.5 -11l359 -359q17 -16 7 -39q-8 -22 -32 -22h-718q-24 0 -33 22z" />
    <glyph glyph-name="uniE700" unicode="&#xe700;" horiz-adv-x="1030"
d="M634 78q89 -32 135 -65t46 -58v-105h-800v201q13 6 29.5 11.5t32 10t19.5 5.5q94 34 129.5 69t35.5 95q0 20 -10 31.5t-24 31.5t-21 58q-2 12 -9.5 17.5t-14.5 8t-14 17t-9 43.5q0 15 4.5 25.5t8.5 13.5l5 3q-9 50 -13 88q-2 21 5.5 47.5t27.5 55.5t63.5 48.5t104.5 19.5
t104.5 -19.5t63.5 -48.5t27.5 -55.5t5.5 -47.5l-13 -88q18 -8 18 -42q-2 -29 -9 -43.5t-14 -17t-14.5 -8t-9.5 -17.5q-7 -38 -21 -58t-24 -31.5t-10 -31.5q0 -60 35.5 -95t129.5 -69zM865 350h150v-100h-150v-150h-100v150h-150v100h150v150h100v-150z" />
    <glyph glyph-name="uniE701" unicode="&#xe701;" horiz-adv-x="413"
d="M0.5 423.5q4.5 13.5 26.5 17.5l251 35l111 228q10 20 25 20v-667l-223 -118q-22 -10 -33.5 -1.5t-6.5 31.5l43 248l-181 177q-17 16 -12.5 29.5z" />
    <glyph glyph-name="uniE704" unicode="&#xe704;" horiz-adv-x="950"
d="M469 760q94 1 179.5 -34.5t148 -96t100 -145t38.5 -178.5t-34.5 -179.5t-96 -148t-145 -100t-178.5 -38.5t-179.5 34.5t-148 96t-100 145t-38.5 178.5t34.5 179.5t96 148t145 100t178.5 38.5zM535 84q1 31 -18 50t-50 20q-29 0 -48 -19t-20 -47q-1 -30 18 -48.5t50 -19.5
q29 0 48 18t20 46zM475 486q67 0 67 -66q0 -14 -11 -31.5t-24 -27.5q-3 -1 -16 -10.5t-33 -25.5t-31 -28q-16 -19 -18 -87h107q0 21 5 34q6 16 28 34l28 19q30 23 43.5 36t26 37.5t12.5 55.5q0 74 -53.5 114t-135.5 40q-84 0 -128 -46.5t-48 -130.5h111v5q0 28 16 53
q15 25 54 25z" />
    <glyph glyph-name="uniE705" unicode="&#xe705;" horiz-adv-x="950"
d="M469 760q94 1 179.5 -34.5t148 -96t100 -145t38.5 -178.5t-34.5 -179.5t-96 -148t-145 -100t-178.5 -38.5t-179.5 34.5t-148 96t-100 145t-38.5 178.5t34.5 179.5t96 148t145 100t178.5 38.5zM520 607q-43 0 -65.5 -23.5t-22.5 -50.5q-1 -28 15.5 -43.5t48.5 -15.5
q38 0 61 21.5t23 52.5q0 59 -60 59zM400 12q30 0 84.5 27t105.5 78l-18 24q-46 -36 -72 -36q-12 0 -3 38l42 159q26 96 -21 96q-31 0 -91 -28.5t-115 -74.5l16 -26q17 11 42.5 22t33.5 11t0 -34l-37 -151q-27 -105 33 -105z" />
    <glyph glyph-name="uniE708" unicode="&#xe708;"
d="M0 -26v276q0 17 11.5 28.5t28.5 11.5h355q17 0 28.5 -11.5t11.5 -28.5v-276q0 -17 -11.5 -28.5t-28.5 -11.5h-355q-17 0 -28.5 11.5t-11.5 28.5zM0 408v277q0 16 11.5 27.5t28.5 11.5h355q17 0 28.5 -11.5t11.5 -27.5v-277q0 -17 -11.5 -28t-28.5 -11h-355
q-17 0 -28.5 11t-11.5 28zM514 -26v276q0 17 11 28.5t28 11.5h355q16 0 27.5 -11.5t11.5 -28.5v-276q0 -17 -11.5 -28.5t-27.5 -11.5h-355q-17 0 -28 11.5t-11 28.5zM514 408v277q0 16 11 27.5t28 11.5h355q16 0 27.5 -11.5t11.5 -27.5v-277q0 -17 -11.5 -28t-27.5 -11h-355
q-17 0 -28 11t-11 28z" />
    <glyph glyph-name="uniE70B" unicode="&#xe70b;"
d="M0 328.5q0 22.5 13 42.5q40 64 91.5 115t111 86.5t124.5 54t134 18.5q27 0 54 -4t53 -9l45 81q5 8 13 10q6 3 15 -1l68 -39q7 -5 10 -12.5t-1 -15.5l-398 -710q-4 -8 -12 -10q-2 -1 -5 -1t-10 2l-69 39q-8 4 -10 12t2 16l34 59q-75 34 -138.5 91t-111.5 134
q-13 19 -13 41.5zM79 329q42 -67 98.5 -117.5t123.5 -81.5l30 54q-45 32 -71.5 81.5t-26.5 109.5q0 40 13 76.5t35 66.5q-60 -31 -111.5 -78.5t-90.5 -110.5zM316 375q0 -11 8.5 -20t21 -9t21 9t8.5 20q0 40 27 67.5t67 27.5q13 0 21.5 9t8.5 20q0 13 -8.5 21.5t-21.5 8.5
q-31 0 -59.5 -12t-49 -32.5t-32.5 -49t-12 -60.5zM477 13l45 82q107 13 196 74.5t150 159.5q-55 87 -134 145l39 71q47 -34 88 -77t75 -97q11 -20 11 -42.5t-11 -41.5q-82 -131 -201.5 -202t-257.5 -72zM556 155l146 262q2 -10 3 -20t1 -22q0 -38 -11 -72t-31 -62.5
t-48 -50.5t-60 -35z" />
    <glyph glyph-name="uniE70D" unicode="&#xe70d;" horiz-adv-x="945"
d="M0 434v229q0 25 18 43t43 18h228q26 0 57 -12.5t48 -30.5l338 -377q16 -18 16.5 -43.5t-16.5 -43.5l-266 -264q-18 -18 -43 -18.5t-43 18.5l-337 377q-17 19 -30 49t-13 55zM99 566q0 -24 17.5 -41.5t41.5 -17.5t41.5 17.5t17.5 41.5t-17.5 41.5t-41.5 17.5t-41.5 -17.5
t-17.5 -41.5zM399 723h87q26 0 57 -13t48 -31l337 -376q17 -19 17.5 -44t-17.5 -43l-265 -264q-18 -18 -43 -18.5t-43 18.5l-6 7l258 258q18 18 17.5 43.5t-17.5 43.5l-336 377q-16 16 -43 28t-51 14z" />
    <glyph glyph-name="uniE711" unicode="&#xe711;" horiz-adv-x="1030"
d="M776 443q99 0 169 -68.5t70 -165.5t-70 -165.5t-169 -68.5h-191v190h105l-175 230l-175 -230h105v-190h-249q-75 0 -128 52t-53 125t53 125t128 52q7 0 21 -2q-3 18 -3 38q0 108 78 184t188 76q89 0 159.5 -52t95.5 -133q19 3 41 3z" />
    <glyph glyph-name="uniE714" unicode="&#xe714;" horiz-adv-x="1350"
d="M277 350l312 -311l-139 -139l-450 450l450 450l139 -139zM900 800l450 -450l-450 -450l-139 139l312 311l-312 311z" />
    <glyph glyph-name="uniE715" unicode="&#xe715;"
d="M0 92v474q0 32 12.5 61t33.5 50t50 34t62 13h429q-3 -16 -3 -33v-26q-84 -11 -159 -40h-267q-24 0 -41.5 -17.5t-17.5 -41.5v-474q0 -24 17.5 -41.5t41.5 -17.5h553q24 0 41 17.5t17 41.5v57q9 5 17 11t16 14l66 65v-147q0 -33 -12.5 -61t-34 -50t-50 -34.5t-60.5 -12.5
h-553q-33 0 -62 12.5t-50 34.5t-33.5 50t-12.5 61zM198 134v19q0 85 29 160.5t89 132t151 89t215 33.5v119q0 29 15 35.5t36 -14.5l201 -201q13 -13 13 -34q0 -20 -13 -32l-201 -202q-21 -21 -36 -14.5t-15 36.5v133q-106 0 -187 -22t-137 -60t-87.5 -89.5t-39.5 -110.5
q-3 -14 -16 -14t-15 14q-2 12 -2 22z" />
    <glyph glyph-name="uniE716" unicode="&#xe716;"
d="M0 -46v178q0 24 9.5 45.5t26 37.5t38 25.5t45.5 9.5h710q25 0 46.5 -9.5t37 -25.5t25 -37.5t9.5 -45.5v-178q0 -20 -20 -20h-907q-20 0 -20 20zM138 33q0 -8 5.5 -13.5t14.5 -5.5h631q9 0 14.5 5.5t5.5 13.5v20q0 9 -5.5 14.5t-14.5 5.5h-631q-9 0 -14.5 -5.5t-5.5 -14.5
v-20zM158 309v376q0 16 11.5 27.5t28.5 11.5h335v-197q0 -25 17 -42.5t42 -17.5h197v-158h-631zM592 527v197l197 -197h-197z" />
    <glyph glyph-name="uniE718" unicode="&#xe718;" horiz-adv-x="830"
d="M715 650q41 0 70.5 -29.5t29.5 -70.5v-350q0 -41 -29.5 -70.5t-70.5 -29.5h-200v-150l-200 150h-200q-41 0 -70.5 29.5t-29.5 70.5v350q0 41 29.5 70.5t70.5 29.5h600z" />
    <glyph glyph-name="uniE720" unicode="&#xe720;"
d="M0 443q0 58 30.5 109t82.5 89t122 60.5t150 22.5t150 -22.5t122 -60.5t82 -89t30 -109q0 -59 -30 -110t-82 -89t-122 -60t-150 -22q-19 0 -36.5 1.5t-35.5 3.5q-36 -28 -77 -48t-89 -30q-21 -5 -42 -6q-12 -2 -17 11v1q-2 6 2 10l8 8q18 18 31.5 39t22.5 67
q-70 38 -111 96t-41 128zM321 77l13 8q13 -2 26 -2h25q98 0 182.5 27.5t147 76t98 114.5t35.5 142q0 20 -3 41q48 -38 75 -86t27 -104q0 -69 -41 -126.5t-110 -96.5q8 -46 22 -66.5t31 -38.5q5 -5 8.5 -9.5t1.5 -9.5q-1 -6 -6.5 -10t-10.5 -3q-11 2 -21 3.5t-21 4.5
q-93 20 -165 76q-18 -2 -36 -3.5t-37 -1.5q-69 0 -129.5 17t-111.5 47z" />
    <glyph glyph-name="uniE722" unicode="&#xe722;" horiz-adv-x="1030"
d="M915 700q41 0 70.5 -29.5t29.5 -70.5v-600q0 -41 -29.5 -70.5t-70.5 -29.5h-800q-41 0 -70.5 29.5t-29.5 70.5v600q0 41 29.5 70.5t70.5 29.5h800zM915 0v600h-800v-600h800zM465 195v-90h-250v90h250zM465 345v-90h-250v90h250zM465 495v-90h-250v90h250zM810 175
q2 0 3.5 -17.5t1.5 -35.5v-17h-250q0 70 5 70q10 2 24 7t37.5 22t23.5 37q0 16 -13.5 34.5t-27.5 45.5t-14 64q0 55 20.5 82.5t69.5 27.5t69.5 -27.5t20.5 -82.5q0 -37 -14 -64t-27.5 -45.5t-13.5 -34.5q0 -20 21.5 -36.5t42.5 -22.5z" />
    <glyph glyph-name="uniE724" unicode="&#xe724;" horiz-adv-x="557"
d="M0 445q0 58 22 108.5t60 88t88.5 60t108.5 22.5t108.5 -22.5t88.5 -60t60 -88t22 -108.5q0 -42 -12.5 -79t-31.5 -71l-189 -327q-19 -34 -46 -34t-46 34l-189 327q-19 34 -31.5 71.5t-12.5 78.5zM141 444.5q0 -28.5 10.5 -53.5t29.5 -44t44.5 -29.5t53.5 -10.5t53.5 10.5
t44 29.5t29.5 44t11 53.5t-11 54t-29.5 44t-44 29.5t-53.5 11t-53.5 -11t-44.5 -29.5t-29.5 -44t-10.5 -54z" />
    <glyph glyph-name="uniE729" unicode="&#xe729;" horiz-adv-x="682"
d="M0 546.5q0 8.5 0.5 17t0.5 18.5q12 6 34.5 10t49.5 7.5t55 5.5t52 3q-3 17 -1.5 33.5t7.5 34.5q1 5 6 12.5t19.5 15.5t42.5 14t75 6t75 -6t42.5 -14t19.5 -16l6 -13q7 -18 8 -34t-1 -33q23 -1 51.5 -3t55.5 -5.5t49 -7.5t34 -10q1 -10 1 -18v-17v-17q0 -8 -1 -18
q-10 -6 -32 -10.5t-48 -7.5t-53.5 -5t-50.5 -3t-39 -1.5t-17 -0.5l-100 -1h-14h-29q-20 0 -57 1q-2 0 -17.5 0.5t-38.5 1.5t-50.5 3t-53.5 5t-47.5 7.5t-32.5 10.5q0 10 -0.5 18t-0.5 16.5zM71 444q43 -6 88.5 -8.5t79.5 -3.5q9 -1 24 -1h78h77q15 0 24 1q35 1 80.5 3.5
t89.5 8.5q-6 -80 -9 -163t-7 -163q-1 -20 -1.5 -44.5t-2 -47.5t-6.5 -42.5t-15 -30.5q-13 -11 -44.5 -15t-61.5 -4h-248q-31 0 -62 4t-43 15q-11 11 -15.5 30.5t-6.5 42.5t-2.5 47.5t-1.5 44.5q-4 80 -7.5 163t-7.5 163zM155 337q1 -15 1 -29t1 -23q0 -12 1 -20
q2 -36 3.5 -72t3.5 -70q1 -9 1 -18v-21v-13q0 -6 0.5 -14.5t1.5 -20.5q1 -8 10 -14.5t15 -6.5q5 -1 10 -1t9 -1h11q5 0 5 20v301q0 9 -5.5 14.5t-14.5 5.5l-34 2q-9 0 -14 -5t-5 -14zM268.5 625.5q0.5 -6.5 2.5 -15.5q9 1 21 1h49l71 -1q1 9 1.5 15.5t-0.5 11.5
q-12 4 -31.5 5.5t-40.5 1.5t-40.5 -1.5t-31.5 -5.5q-1 -5 -0.5 -11.5zM307 33q0 -8 5.5 -14t13.5 -6h30q8 0 14 6t6 14v300q0 9 -11.5 14t-15.5 5h-15q-3 0 -15 -5t-12 -14v-300zM455 33q0 -20 4 -20h12q3 1 13.5 1.5t15.5 0.5q5 1 9 7t5 14q0 12 0.5 20.5t0.5 14.5
q0 7 1 13v21q0 9 1 18q2 34 3 69.5t3 71.5q0 9 1 21q1 9 1.5 23t1.5 29q0 9 -5 14t-14 5l-34 -2q-9 0 -14 -5.5t-5 -14.5v-301z" />
    <glyph glyph-name="uniE730" unicode="&#xe730;" horiz-adv-x="730"
d="M615 750q41 0 70.5 -29.5t29.5 -70.5v-700q0 -41 -29.5 -70.5t-70.5 -29.5h-500q-41 0 -70.5 29.5t-29.5 70.5v700q0 41 29.5 70.5t70.5 29.5h500zM615 -50v700h-500v-700h500z" />
    <glyph glyph-name="uniE736" unicode="&#xe736;" horiz-adv-x="730"
d="M665 550q21 0 35.5 -14.5t14.5 -35.5v-600q0 -21 -14.5 -35.5t-35.5 -14.5h-400q-21 0 -35.5 14.5t-14.5 35.5v150h-150q-21 0 -35.5 14.5t-14.5 35.5v600q0 21 14.5 35.5t35.5 14.5h400q21 0 35.5 -14.5t14.5 -35.5v-150h150zM115 150h100v351q0 21 14 35t35 14h151v100
h-300v-500zM615 -50v500h-300v-500h300z" />
    <glyph glyph-name="uniE73A" unicode="&#xe73a;" horiz-adv-x="790"
d="M15 680q155 0 295.5 -60t242.5 -162t162 -242.5t60 -295.5h-118q0 130 -51 249t-137 205t-205 137t-249 51v118zM15 443q142 0 262.5 -70t190.5 -190.5t70 -262.5h-118q0 167 -119 286t-286 119v118zM128 147q47 0 80.5 -33.5t33.5 -80.5t-33.5 -80t-80.5 -33t-80 33
t-33 80t33 80.5t80 33.5z" />
    <glyph glyph-name="uniE73D" unicode="&#xe73d;" horiz-adv-x="1006"
d="M209 74q33 0 56 -23t23 -56t-23 -55t-56 -22q-31 0 -54.5 22t-23.5 55t22.5 56t55.5 23zM738.5 74q32.5 0 55 -23t22.5 -56t-22.5 -55t-55 -22t-55.5 22t-23 55t23 56t55.5 23zM261 662h565q26 0 40.5 -13.5t14.5 -36.5v-233q0 -20 -13 -34t-33 -16l-505 -57
q-20 -2 -29 -16.5t0 -28t31 -13.5h479q27 0 37.5 -21t0 -41t-37.5 -20h-489q-52 0 -84 33t-27 77t47 76l43 32l-155 339h-76q-28 0 -39 22.5t0 45t39 22.5h89q31 0 45 -12.5t26 -41.5zM606 592h-130l26 -84h124zM294 592l38 -84h127l-28 84h-137zM402 351l100 10l-32 101
h-119zM546 366l113 12l-25 84h-119zM812 395v67h-132l20 -78zM812 508v84h-161l19 -84h142z" />
    <glyph glyph-name="uniE744" unicode="&#xe744;" horiz-adv-x="789"
d="M0 -22v269q0 27 13.5 33t33.5 -13l86 -85l141 141q6 6 15.5 6t16.5 -6l82 -82q7 -8 7 -17.5t-7 -15.5l-141 -141l86 -85q20 -20 13.5 -34t-33.5 -14h-268q-19 0 -31 13q-14 14 -14 31zM395 434.5q0 9.5 6 15.5l141 141l-85 85q-20 20 -14 34t34 14h267q19 0 32 -13
q13 -14 13 -32v-268q0 -27 -13.5 -33t-33.5 13l-85 85l-141 -140q-7 -7 -16 -7t-17 7l-82 81q-6 8 -6 17.5z" />
    <glyph glyph-name="uniE746" unicode="&#xe746;" horiz-adv-x="789"
d="M0 38.5q0 9.5 6 16.5l141 140l-85 86q-20 20 -13.5 33.5t33.5 13.5h267q20 0 32 -13q14 -13 14 -31v-269q0 -27 -14 -33t-34 14l-85 86l-141 -141q-6 -8 -15.5 -8t-17.5 8l-82 82q-6 6 -6 15.5zM395 373v269q0 27 13.5 33t33.5 -14l85 -86l141 141q7 8 16.5 8t16.5 -8
l82 -82q6 -6 6 -15.5t-6 -16.5l-141 -140l85 -86q20 -20 14 -33.5t-34 -13.5h-267q-21 0 -32 13q-13 13 -13 31z" />
    <glyph glyph-name="uniE750" unicode="&#xe750;" horiz-adv-x="789"
d="M0 394.5q0 68.5 26 128.5t70.5 104.5t104.5 70.5t128 26t128 -26t104.5 -70.5t70.5 -104.5t26 -129q0 -50 -14.5 -95.5t-40.5 -85.5l177 -176q9 -10 9 -24t-9 -23l-46 -46q-10 -10 -23.5 -10t-23.5 10l-176 177q-40 -27 -85.5 -41t-96.5 -14q-68 0 -128 25.5t-104.5 70.5
t-70.5 104.5t-26 128zM132 394q0 -41 15 -76.5t42 -62.5t63 -42.5t77.5 -15.5t77 15.5t62.5 42.5t42 62.5t15 76.5t-15 77t-42 63t-62.5 42.5t-77 15.5t-77.5 -15.5t-63 -42.5t-42 -63t-15 -77zM198 378v33q0 7 4.5 12t11.5 5h82v82q0 6 4.5 11t12.5 5h32q8 0 12.5 -5
t4.5 -11v-82h82q17 0 17 -17v-33q0 -16 -17 -16h-82v-83q0 -16 -17 -16h-32q-17 0 -17 16v83h-82q-7 0 -11.5 4.5t-4.5 11.5z" />
    <glyph glyph-name="uniE751" unicode="&#xe751;" horiz-adv-x="789"
d="M0 394.5q0 68.5 26 128.5t70.5 104.5t104.5 70.5t128 26t128 -26t104.5 -70.5t70.5 -104.5t26 -129q0 -50 -14.5 -95.5t-40.5 -85.5l177 -176q9 -10 9 -24t-9 -23l-46 -46q-10 -10 -23.5 -10t-23.5 10l-176 177q-40 -27 -85.5 -41t-96.5 -14q-68 0 -128 25.5t-104.5 70.5
t-70.5 104.5t-26 128zM132 394q0 -41 15 -76.5t42 -62.5t63 -42.5t77.5 -15.5t77 15.5t62.5 42.5t42 62.5t15 76.5t-15 77t-42 63t-62.5 42.5t-77 15.5t-77.5 -15.5t-63 -42.5t-42 -63t-15 -77zM198 378v33q0 7 4.5 12t11.5 5h230q17 0 17 -17v-33q0 -16 -17 -16h-230
q-7 0 -11.5 4.5t-4.5 11.5z" />
    <glyph glyph-name="uniE75C" unicode="&#xe75c;" horiz-adv-x="789"
d="M0 406.5q0 19.5 15 34.5l51 52q15 15 35 15t35 -15l261 -262l257 262q14 15 34 15t35 -15l52 -52q14 -15 15 -34.5t-14 -34.5l-347 -346q-14 -15 -34 -15t-35 15l-345 346q-15 15 -15 34.5z" />
    <glyph glyph-name="uniE75D" unicode="&#xe75d;" horiz-adv-x="495"
d="M0 327.5q0 19.5 15 34.5l345 346q15 15 35 15t34 -15l52 -52q15 -14 15 -34t-15 -35l-261 -262l261 -257q15 -15 15 -34.5t-15 -34.5l-52 -52q-14 -15 -34 -15t-35 15l-345 346q-15 15 -15 34.5z" />
    <glyph glyph-name="uniE75E" unicode="&#xe75e;" horiz-adv-x="495"
d="M0 34q0 20 15 35l261 261l-261 258q-15 15 -15 34.5t15 33.5l51 53q15 15 35 15t35 -15l345 -346q15 -15 15 -35t-15 -35l-345 -345q-15 -15 -35 -15t-35 15l-51 51q-15 15 -15 35z" />
    <glyph glyph-name="uniE75F" unicode="&#xe75f;" horiz-adv-x="789"
d="M-0.5 116.5q-0.5 19.5 14.5 34.5l346 346q15 15 35 15t34 -15l346 -346q14 -15 14 -34.5t-14 -33.5l-52 -53q-15 -15 -35 -15t-34 15l-261 262l-257 -262q-15 -15 -35 -15t-35 15l-51 53q-15 14 -15.5 33.5z" />
    <glyph glyph-name="uniE762" unicode="&#xe762;"
d="M0 -34v726q0 20 18 30q20 7 33 -8l335 -362q9 -9 9 -23t-9 -23l-335 -362q-9 -10 -22 -10q-3 0 -11 2q-18 9 -18 30zM395 -34v726q0 20 18 30q20 7 32 -8l336 -362q8 -9 8 -23t-8 -23l-336 -362q-8 -10 -21 -10q-3 0 -11 2q-18 9 -18 30zM789 -27q0 -16 12 -27.5
t27 -11.5h79q17 0 28.5 11.5t11.5 27.5v711q0 17 -11.5 28.5t-28.5 11.5h-79q-15 0 -27 -11.5t-12 -28.5v-711z" />
    <glyph glyph-name="uniE763" unicode="&#xe763;"
d="M0 -27q0 -16 11.5 -27.5t27.5 -11.5h79q17 0 28.5 11.5t11.5 27.5v711q0 17 -11.5 28.5t-28.5 11.5h-79q-16 0 -27.5 -11.5t-11.5 -28.5v-711zM158 329q0 14 8 22l336 363q7 10 21 10q3 0 12 -2q18 -10 18 -31v-725q0 -21 -18 -30q-20 -7 -33 8l-336 362q-8 9 -8 23z
M553 329q0 14 8 22l336 363q7 10 21 10q3 0 11 -2q18 -10 18 -31v-725q0 -21 -18 -30q-20 -7 -32 8l-336 362q-8 9 -8 23z" />
    <glyph glyph-name="uniE782" unicode="&#xe782;" horiz-adv-x="1228"
d="M256 38.5q0 41.5 30.5 72t71.5 30.5h513q40 0 71 -30.5t31 -72t-31 -72t-71 -30.5h-513q-41 0 -71.5 30.5t-30.5 72zM256 294.5q0 40.5 30.5 71.5t71.5 31h513q40 0 71 -31t31 -71.5t-31 -71.5t-71 -31h-513q-41 0 -71.5 31t-30.5 71.5zM256 550q0 41 30.5 72t71.5 31
h513q40 0 71 -31t31 -72t-31 -71.5t-71 -30.5h-513q-41 0 -71.5 30.5t-30.5 71.5z" />
    <glyph glyph-name="uniE78E" unicode="&#xe78e;" horiz-adv-x="750"
d="M0 309q0 94 43 175.5t121 134.5q7 4 15 4q7 -1 13 -9l44 -65q10 -17 -5 -27q-54 -37 -83 -93t-29 -120q0 -53 20 -99.5t54.5 -81.5t81.5 -55t100 -20t100 20t82 55t55 81.5t20 99.5q0 64 -29.5 120t-83.5 93q-6 3 -8 12q-2 7 3 15l45 65q5 7 12.5 8.5t14.5 -3.5
q77 -53 121 -134.5t44 -175.5q0 -78 -29.5 -146t-81 -119t-119.5 -80.5t-146 -29.5t-146 29.5t-119 80.5t-80.5 119t-29.5 146zM316 349v355q0 20 20 20h79q8 0 14 -6t6 -14v-355q0 -8 -6 -14t-14 -6h-79q-20 0 -20 20z" />
    <glyph glyph-name="uniE792" unicode="&#xe792;"
d="M0 -66v790h79v-790h-79zM117 -66v790h19v-790h-19zM183 -66v790h60v-790h-60zM280 -66v790h40v-790h-40zM367 -66v790h39v-790h-39zM464 -66v790h19v-790h-19zM521 -66v790h79v-790h-79zM627 -66v790h40v-790h-40zM724 -66v790h20v-790h-20zM812 -66v790h19v-790h-19z
M868 -66v790h79v-790h-79z" />
    <glyph glyph-name="uniE794" unicode="&#xe794;" horiz-adv-x="558"
d="M0 214q0 41 11.5 79t32.5 71q11 17 35 49.5t53 76t56.5 95t44.5 107.5q5 18 18 26t28 6q16 2 29 -6t18 -26q17 -56 44.5 -107.5t56.5 -95t53 -76t35 -49.5q21 -33 32.5 -71t11.5 -79q0 -58 -22 -109t-60 -89t-89 -60t-109 -22t-108.5 22t-88.5 60t-60 89t-22 109z
M122 152q0 -29 20.5 -49t50.5 -20q28 0 48.5 20t20.5 49q0 19 -10 38q-4 4 -10 12t-13 19t-14 24t-11 27q-4 10 -11 7q-10 3 -12 -7q-4 -14 -11.5 -27t-14.5 -24t-13 -19t-8 -12q-12 -18 -12 -38z" />
    <glyph glyph-name="uniE7A2" unicode="&#xe7a2;" horiz-adv-x="917"
d="M842 355h-331v335q138 0 234.5 -97t96.5 -234v-4zM406 250h333v4q0 -138 -97.5 -235t-235 -97t-234.5 97t-97 234.5t97 235t234 97.5v-336z" />
    <glyph glyph-name="uniE7AC" unicode="&#xe7ac;" horiz-adv-x="1224"
d="M144 329l285 122v86l-285 121v-89l188 -76l-188 -75v-89zM470 260h286v69h-286v-69zM1224 800v-900h-1224v900h1224z" />
    <glyph glyph-name="uniE7B5" unicode="&#xe7b5;" horiz-adv-x="1021"
d="M475 -139v115l-150 -57l-15 26l165 101v58h-317q-19 0 -32.5 13t-13.5 32q0 17 12 29.5t30 15.5v414q-18 1 -30 13.5t-12 29.5q0 19 13.5 32t32.5 13h326l18 49h12l18 -49h332q18 0 31.5 -13t13.5 -32t-13.5 -32t-31.5 -13v-412q18 0 31.5 -13t13.5 -32t-13.5 -32
t-31.5 -13h-328v-58l166 -101l-14 -26l-152 57v-115q0 -13 -9 -22.5t-22 -9.5q-14 0 -22 9.5t-8 22.5zM806 198v404h-595v-404h595z" />
    <glyph glyph-name="uniE800" unicode="&#xe800;" horiz-adv-x="828"
d="M0.5 423.5q4.5 13.5 26.5 17.5l251 35l111 228q10 20 24.5 20t24.5 -20l113 -228l249 -35q23 -4 27.5 -17.5t-11.5 -29.5l-181 -177l42 -248q3 -17 -2.5 -26t-16.5 -9q-7 0 -20 5l-224 118l-223 -118q-13 -5 -20 -5q-12 0 -17.5 9t-2.5 26l43 248l-181 177
q-17 16 -12.5 29.5zM143 377l105 -103l31 -28l-7 -41l-26 -147l131 70l37 19l37 -19l130 -70l-24 147l-8 41l30 28l106 103l-146 21l-41 7l-19 37l-65 132l-66 -132l-17 -37l-42 -7z" />
    <glyph glyph-name="uniE801" unicode="&#xe801;" horiz-adv-x="828"
d="M0.5 423.5q4.5 13.5 26.5 17.5l251 36l111 227q11 21 25 21t24 -21l113 -227l249 -36q23 -4 27.5 -17.5t-11.5 -29.5l-181 -177l42 -248q4 -23 -7.5 -31.5t-31.5 3.5l-224 116l-223 -116q-22 -12 -33.5 -3.5t-6.5 31.5l43 248l-181 177q-17 16 -12.5 29.5z" />
    <glyph glyph-name="uniE802" unicode="&#xe802;"
d="M0 377q0 72 37.5 135t101.5 110t150.5 74.5t184.5 27.5t184 -27.5t150.5 -74.5t101.5 -110t37 -134.5t-37 -135t-101.5 -110t-150.5 -74t-184 -27.5q-47 0 -89 6q-44 -33 -95 -57.5t-109 -36.5l-25 -5l-27 -4q-16 -2 -21 15v1q-2 7 4 12l9 10l21 23q10 11 17.5 25.5
t14.5 34t12 48.5q-85 47 -135.5 118t-50.5 156z" />
    <glyph glyph-name="uniE803" unicode="&#xe803;"
d="M0 63v79q0 20 20 20h113q26 0 50.5 16t48 43t46.5 61l46 72l60 90q30 45 64.5 79.5t75.5 56.5t93 22h104v94q0 21 12.5 25.5t30.5 -10.5l172 -142q11 -10 11 -24t-11 -23l-172 -144q-18 -14 -30.5 -10t-12.5 25v91h-104q-28 0 -52 -16.5t-47.5 -43.5t-47.5 -62l-46 -71
q-28 -46 -58 -90.5t-65 -79t-76.5 -56t-91.5 -21.5h-113q-8 0 -14 5t-6 14zM0 504v79q0 8 6 14t14 6h113q54 0 98 -25t81 -65q-19 -26 -36 -52l-33 -50q-26 33 -53 53t-57 20h-113q-8 0 -14 5.5t-6 14.5zM439 134l35 51l32 51q27 -32 53.5 -52t57.5 -20h104v99q0 21 12.5 25
t30.5 -11l172 -143q11 -9 11 -23q0 -15 -11 -24l-172 -142q-18 -15 -30.5 -11t-12.5 25v87h-104q-56 0 -98.5 24t-79.5 64z" />
    <glyph glyph-name="uniE804" unicode="&#xe804;" horiz-adv-x="789"
d="M0 -34v726q0 20 18 30q20 7 33 -8l335 -362q9 -9 9 -23t-9 -23l-335 -362q-9 -10 -22 -10q-3 0 -11 2q-18 9 -18 30zM395 -34v726q0 20 18 30q20 7 32 -8l336 -362q8 -9 8 -23t-8 -23l-336 -362q-8 -10 -21 -10q-3 0 -11 2q-18 9 -18 30z" />
    <glyph glyph-name="uniE805" unicode="&#xe805;" horiz-adv-x="552"
d="M0 -27q0 -16 11.5 -27.5t27.5 -11.5h79q17 0 28.5 11.5t11.5 27.5v711q0 17 -11.5 28.5t-28.5 11.5h-79q-16 0 -27.5 -11.5t-11.5 -28.5v-711zM158 329q0 14 8 22l336 363q7 10 21 10q3 0 12 -2q18 -10 18 -31v-725q0 -21 -18 -30q-20 -7 -33 8l-336 362q-8 9 -8 23z" />
    <glyph glyph-name="uniE806" unicode="&#xe806;" horiz-adv-x="552"
d="M0 -34v726q0 20 18 30q20 7 33 -8l335 -362q9 -9 9 -23t-9 -23l-335 -362q-9 -10 -22 -10q-3 0 -11 2q-18 9 -18 30zM395 -27q0 -16 11.5 -27.5t27.5 -11.5h79q16 0 28 11.5t12 27.5v711q0 17 -12 28.5t-28 11.5h-79q-16 0 -27.5 -11.5t-11.5 -28.5v-711z" />
    <glyph glyph-name="uniE807" unicode="&#xe807;" horiz-adv-x="789"
d="M0 -30v718q0 15 10.5 25.5t25.5 10.5h718q14 0 24.5 -10.5t10.5 -25.5v-718q0 -15 -10.5 -25.5t-24.5 -10.5h-718q-15 0 -25.5 10.5t-10.5 25.5z" />
    <glyph glyph-name="uniE808" unicode="&#xe808;" horiz-adv-x="789"
d="M0 -30v718q0 15 10.5 25.5t25.5 10.5h251q15 0 25.5 -10.5t10.5 -25.5v-718q0 -15 -10.5 -25.5t-25.5 -10.5h-251q-15 0 -25.5 10.5t-10.5 25.5zM466 -30v718q0 15 10.5 25.5t25.5 10.5h252q14 0 24.5 -10.5t10.5 -25.5v-718q0 -15 -10.5 -25.5t-24.5 -10.5h-252
q-15 0 -25.5 10.5t-10.5 25.5z" />
    <glyph glyph-name="uniE809" unicode="&#xe809;" horiz-adv-x="693"
d="M0 -30v718q0 20 18 30q19 12 36 0l622 -357q18 -13 18 -32t-18 -32l-622 -358q-9 -5 -18.5 -5t-17.5 5q-18 11 -18 31z" />
    <glyph glyph-name="uniE80A" unicode="&#xe80a;" horiz-adv-x="789"
d="M0 433v230q0 25 18 43t43 18h230q25 0 55.5 -13t48.5 -30l377 -377q17 -18 17 -43.5t-17 -43.5l-266 -265q-18 -18 -43 -18t-43 18l-377 377q-18 18 -30.5 48.5t-12.5 55.5zM99 566q0 -24 17.5 -41.5t41.5 -17.5t41.5 17.5t17.5 41.5t-17.5 41.5t-41.5 17.5t-41.5 -17.5
t-17.5 -41.5z" />
    <glyph glyph-name="uniE80B" unicode="&#xe80b;"
d="M0 -26v139q0 17 11.5 28t28.5 11h153q15 0 27 -11t12 -28v-139q0 -17 -12 -28.5t-27 -11.5h-153q-17 0 -28.5 11.5t-11.5 28.5zM0 271v116q0 17 11.5 28t28.5 11h153q15 0 27 -11t12 -28v-116q0 -17 -12 -28.5t-27 -11.5h-153q-17 0 -28.5 11.5t-11.5 28.5zM0 545v140
q0 16 11.5 27.5t28.5 11.5h153q15 0 27 -11.5t12 -27.5v-140q0 -17 -12 -28.5t-27 -11.5h-153q-17 0 -28.5 11.5t-11.5 28.5zM311 -26v139q0 17 11.5 28t28.5 11h557q16 0 27.5 -11t11.5 -28v-139q0 -17 -11.5 -28.5t-27.5 -11.5h-557q-17 0 -28.5 11.5t-11.5 28.5zM311 271
v116q0 17 11.5 28t28.5 11h557q16 0 27.5 -11t11.5 -28v-116q0 -17 -11.5 -28.5t-27.5 -11.5h-557q-17 0 -28.5 11.5t-11.5 28.5zM311 545v140q0 16 11.5 27.5t28.5 11.5h557q16 0 27.5 -11.5t11.5 -27.5v-140q0 -17 -11.5 -28.5t-27.5 -11.5h-557q-17 0 -28.5 11.5
t-11.5 28.5z" />
    <glyph glyph-name="uniE80C" unicode="&#xe80c;"
d="M0 -26v139q0 17 11.5 28t28.5 11h184q16 0 27.5 -11t11.5 -28v-139q0 -17 -11.5 -28.5t-27.5 -11.5h-184q-17 0 -28.5 11.5t-11.5 28.5zM0 271v116q0 17 11.5 28t28.5 11h184q16 0 27.5 -11t11.5 -28v-116q0 -17 -11.5 -28.5t-27.5 -11.5h-184q-17 0 -28.5 11.5
t-11.5 28.5zM0 545v140q0 16 11.5 27.5t28.5 11.5h184q16 0 27.5 -11.5t11.5 -27.5v-140q0 -17 -11.5 -28.5t-27.5 -11.5h-184q-17 0 -28.5 11.5t-11.5 28.5zM342 -26v139q0 17 11.5 28t28.5 11h184q16 0 27.5 -11t11.5 -28v-139q0 -17 -11.5 -28.5t-27.5 -11.5h-184
q-17 0 -28.5 11.5t-11.5 28.5zM342 271v116q0 17 11.5 28t28.5 11h184q16 0 27.5 -11t11.5 -28v-116q0 -17 -11.5 -28.5t-27.5 -11.5h-184q-17 0 -28.5 11.5t-11.5 28.5zM342 545v140q0 16 11.5 27.5t28.5 11.5h184q16 0 27.5 -11.5t11.5 -27.5v-140q0 -17 -11.5 -28.5
t-27.5 -11.5h-184q-17 0 -28.5 11.5t-11.5 28.5zM684 -26v139q0 17 11.5 28t28.5 11h184q16 0 27.5 -11t11.5 -28v-139q0 -17 -11.5 -28.5t-27.5 -11.5h-184q-17 0 -28.5 11.5t-11.5 28.5zM684 271v116q0 17 11.5 28t28.5 11h184q16 0 27.5 -11t11.5 -28v-116
q0 -17 -11.5 -28.5t-27.5 -11.5h-184q-17 0 -28.5 11.5t-11.5 28.5zM684 545v140q0 16 11.5 27.5t28.5 11.5h184q16 0 27.5 -11.5t11.5 -27.5v-140q0 -17 -11.5 -28.5t-27.5 -11.5h-184q-17 0 -28.5 11.5t-11.5 28.5z" />
    <glyph glyph-name="uniE80D" unicode="&#xe80d;" horiz-adv-x="789"
d="M0 33q0 20 15 35l261 262l-261 257q-15 15 -15 35t15 34l51 52q15 15 35 15t35 -15l259 -259l259 259q14 15 34 15t35 -15l52 -52q14 -14 14 -34t-14 -35l-261 -262l261 -257q14 -15 14 -34.5t-14 -34.5l-52 -52q-15 -15 -35 -15t-34 15l-259 260l-260 -260
q-15 -15 -34.5 -15t-34.5 15l-51 51q-15 15 -15 35z" />
    <glyph glyph-name="uniE80E" unicode="&#xe80e;"
d="M1 339q3 12 14 20l433 356q12 9 25.5 9t25.5 -9l133 -109v61q0 20 20 20h117q20 0 20 -20v-190l144 -118q10 -8 13 -20t-1 -24q-10 -25 -38 -25h-79v-316q0 -17 -11 -28.5t-28 -11.5h-216v237h-198v-237h-217q-17 0 -28.5 11.5t-11.5 28.5v316h-79q-26 0 -37 25
q-4 12 -1 24z" />
    <glyph glyph-name="uniE80F" unicode="&#xe80f;"
d="M0 305.5q0 22.5 13 42.5q40 64 91.5 115t111 86.5t124.5 54t134 18.5t134.5 -18.5t124.5 -53.5t110.5 -86t92.5 -116q11 -20 11 -42.5t-11 -41.5q-41 -66 -92.5 -117t-110.5 -85.5t-124.5 -53t-134.5 -18.5t-134 18.5t-124.5 53.5t-111 86t-91.5 116q-13 19 -13 41.5z
M79 306q34 -54 77 -98t93.5 -74.5t107 -47.5t117.5 -17t117 17t106.5 47.5t94 74.5t76.5 98q-41 66 -96 116t-121 81q26 -31 40.5 -69t14.5 -82q0 -49 -18.5 -92t-51 -75.5t-75.5 -51t-92 -18.5t-91.5 18.5t-75.5 51t-51 75.5t-18 92q0 40 13 76.5t35 65.5
q-60 -30 -111.5 -78t-90.5 -110zM316 352q0 -11 8.5 -20t21 -9t21 9t8.5 20q0 40 27 67.5t67 27.5q13 0 21.5 9t8.5 20q0 13 -8.5 21.5t-21.5 8.5q-31 0 -59.5 -12t-49 -32.5t-32.5 -49t-12 -60.5z" />
    <glyph glyph-name="uniE810" unicode="&#xe810;"
d="M0 -7v672q0 24 17.5 41.5t41.5 17.5h356q24 0 41.5 -17.5t17.5 -41.5t17 -41.5t42 -17.5h355q25 0 42 -18t17 -42v-553q0 -24 -17 -41.5t-42 -17.5h-829q-24 0 -41.5 17.5t-17.5 41.5z" />
    <glyph glyph-name="uniE811" unicode="&#xe811;" horiz-adv-x="530"
d="M265 700q103 0 176.5 -73t73.5 -177q0 -67 -25.5 -148t-62.5 -149.5t-74 -127t-63 -91.5l-25 -34l-27 35q-17 22 -60 89t-76 130t-60 146t-27 150q0 104 73.5 177t176.5 73zM265 312q56 0 95.5 39.5t39.5 95.5t-39.5 95.5t-95.5 39.5t-95.5 -39.5t-39.5 -95.5t39.5 -95.5
t95.5 -39.5z" />
    <glyph glyph-name="uniE812" unicode="&#xe812;" horiz-adv-x="1030"
d="M871 466h-100l-124 151l-214 -151h-180q-53 0 -90.5 -38t-37.5 -92v-159l-107 297q-6 16 0.5 31t21.5 20l680 248q15 5 29 -2t20 -23zM977 376q16 0 27 -11.5t11 -28.5v-471q0 -17 -11 -28.5t-27 -11.5h-724q-16 0 -27 11.5t-11 28.5v471q0 17 11 28.5t27 11.5h724z
M922 -75v161l-73 161l-167 -60l-129 -133l-139 172l-92 -215v-86h600z" />
    <glyph glyph-name="uniE813" unicode="&#xe813;"
d="M0 665v39q0 20 20 20h119q8 0 19 -2.5t19 -4.5q3 -2 7 -7t8 -12t6.5 -14t3.5 -11l14 -64h692q18 0 29.5 -13.5t8.5 -30.5l-55 -297q-4 -13 -14.5 -22t-24.5 -9h-557l18 -86q2 -8 8.5 -13.5t15.5 -5.5h440q8 0 14 -5.5t6 -14.5v-40q0 -8 -6 -13.5t-14 -5.5h-84h-335h-54
q-8 0 -18.5 1.5t-18.5 4.5q-3 2 -7 7.5t-8 12.5t-6.5 13.5t-3.5 11.5l-110 522q-3 8 -9.5 13.5t-15.5 5.5h-87q-20 0 -20 20zM299 -7q0 24 17.5 42t41.5 18q25 0 42.5 -18t17.5 -42t-17.5 -41.5t-42.5 -17.5q-24 0 -41.5 17.5t-17.5 41.5zM634 -7q0 24 17 42t41.5 18t42 -18
t17.5 -42t-17.5 -41.5t-42 -17.5t-41.5 17.5t-17 41.5z" />
    <glyph glyph-name="uniE814" unicode="&#xe814;" horiz-adv-x="1228"
d="M31 151q0 46 82 97q66 36 143 46v51q-77 77 -77 190q0 194 154 194q77 0 97 -20q26 -20 36 -92q-97 -66 -98 -246q0 -159 67 -230q-26 0 -71 -31l-36 -20l-11 -10q-15 -11 -25 -21l-26 -26q-25 0 -138 31q-97 31 -97 87zM281 -43.5q0 40.5 93 97.5q87 46 158 51v56
q-82 77 -81 205q0 210 163.5 210t163.5 -210q0 -128 -81 -205v-56q71 -6 158 -51.5t87 -96.5q0 -41 -71 -62q-77 -21 -149 -31q-46 -5 -107.5 -5t-107.5 5q-71 10 -148.5 31t-77.5 61.5zM763 617q10 72 36 92q20 20 97 20q153 0 153 -194q0 -113 -76 -190v-51
q76 -10 143 -46q87 -46 87 -97t-102 -87q-113 -31 -139 -31l-25 26q-10 10 -26 21l-10 10q-20 10 -36 20q-46 31 -71 31q66 71 66 230q0 180 -97 246z" />
    <glyph glyph-name="uniE815" unicode="&#xe815;" horiz-adv-x="1228"
d="M358 341l384 414l-128 -358l257 -149l-384 -414l127 358z" />
    <glyph glyph-name="uniE817" unicode="&#xe817;" horiz-adv-x="961"
d="M481 722q169 0 287 -117t118 -286q0 -170 -117.5 -288.5t-287.5 -118.5q-169 0 -287.5 118.5t-118.5 288.5q0 167 118.5 285t287.5 118zM504 -11q67 0 116 169q-58 -6 -116 -8v-161zM375 70q34 -81 81 -81v161q-58 2 -115 8q11 -48 34 -88zM152 272q34 -40 133 -57
q-7 46 -7 100q0 33 3 69q-82 16 -117 31q-14 -47 -14 -96q0 -33 2 -47zM322 315q0 -57 8 -109q60 -10 126 -12v176q-76 2 -132 9q0 -11 -1 -32t-1 -32zM454 646q-43 -16 -76 -77t-48 -148q61 -5 126 -7v232h-2zM536 629q-26 17 -32 17v-232q62 1 127 7q-26 145 -95 208z
M504 194q64 1 126 11q8 40 8 110q0 41 -2 63q-64 -7 -132 -8v-176zM680 384q2 -24 2 -69q0 -49 -6 -101q90 15 112.5 36.5t22.5 68.5q0 50 -15 95q-57 -24 -116 -30zM779 458q-57 123 -179 167q54 -70 74 -199q84 15 105 32zM248 550q-40 -36 -66 -91q6 -5 104 -31
q22 124 75 196q-80 -38 -113 -74zM248 85q40 -44 106 -71q-40 56 -60 151q-84 19 -125 41q31 -77 79 -121zM714 85q48 45 75 116q-47 -21 -121 -37q-23 -96 -62 -150q68 28 108 71z" />
    <glyph glyph-name="uniF301" unicode="&#xf301;" horiz-adv-x="978"
d="M188 800h602q73 0 123.5 -51t50.5 -123v-602q0 -72 -50.5 -123t-123.5 -51h-602q-72 0 -123 51t-51 123v602q0 72 51 123t123 51zM515 -150h141v371h139l6 134h-145v97q0 32 10.5 46t45.5 14l85 -1l4 126q-41 4 -95 4q-95 0 -143 -49t-48 -123v-114h-99v-134h99v-371z
" />
    <glyph glyph-name="uniF303" unicode="&#xf303;" horiz-adv-x="1332"
d="M1318 385q-35 -5 -77.5 -0.5t-69.5 15.5q53 4 90.5 27t51.5 57q-22 -14 -69.5 -21t-84.5 4q-1 4 -3 14.5t-4 16.5q-26 97 -105.5 161.5t-170.5 54.5l29 11q2 1 14.5 4t24 6.5t23.5 9t17.5 12t1.5 14.5q-2 7 -14.5 7.5t-29.5 -4t-32.5 -9.5t-31 -11t-18.5 -7q64 24 69 53
q-59 -8 -103 -49q17 19 20 39q-68 -43 -115 -122.5t-89 -192.5q-62 59 -99 79q-136 73 -335 148q-4 -42 23.5 -87.5t88.5 -77.5q-27 4 -81 -9q9 -48 43 -81t104 -49q-61 -4 -90 -35q19 -37 59.5 -61.5t101.5 -18.5q-35 -15 -46.5 -36.5t-2 -39t34.5 -28.5t55 -6
q-68 -71 -158.5 -94.5t-177 -1.5t-148.5 82q79 -108 191.5 -172.5t229 -80t237 6.5t219.5 77.5t172.5 142.5t99.5 193q101 -1 155 59z" />
    <glyph glyph-name="uniF308" unicode="&#xf308;" horiz-adv-x="1132"
d="M456 224q0 51 -22 87.5t-52.5 36.5t-52 -36.5t-21.5 -87.5t21.5 -87t52.5 -36t52.5 36t21.5 87zM856 224q0 51 -22 87.5t-52.5 36.5t-53 -36.5t-22.5 -87.5t22 -87t53.5 -36t53 36t21.5 87zM933 238q0 -37 -4.5 -68.5t-14.5 -55t-21 -42.5t-29.5 -32.5t-35 -23.5
t-42.5 -16t-46.5 -10t-52 -6t-54.5 -2.5t-58 -0.5q-65 0 -114 5.5t-97 21.5t-78 43.5t-49 74.5t-19 112q0 78 61 142q23 24 58.5 33.5t65.5 8.5t84.5 -5.5t87.5 -4.5t87 4.5t85 5.5t66.5 -8.5t57.5 -32.5q62 -67 62 -143zM724 -99q156 15 239.5 64.5t120.5 136.5q6 12 19 59
q16 52 16 174q0 146 -102 248q31 101 -15 216q-3 1 -9 2t-27 -1t-45.5 -9t-65.5 -27t-85 -50q-91 23 -198 23q-115 0 -218 -28q-47 32 -89 53t-68.5 28t-46.5 10t-28 1l-9 -2q-21 -54 -24 -108.5t2.5 -79.5t12.5 -43q-90 -98 -90 -233q0 -115 27 -193q2 -8 22 -48
q87 -162 364 -193h297z" />
    <glyph glyph-name="u1D30D" unicode="&#x1d30d;" horiz-adv-x="1228"
d="M154 294q0 190 133 323q138 138 327 138q195 0 323 -138q138 -128 138 -323q0 -189 -138 -327q-133 -133 -323 -133q-184 0 -327 133q-133 143 -133 327zM251 494h30q26 -30 32 -30q25 -93 55 -108l26 -15q16 0 16 25q0 20 -10 31q0 20 4 25q11 21 21 26q10 20 15 20
l11 -15q15 -30 30 -36v-10q6 -15 6 -20v-10q0 -6 -6 -6q0 -5 -8 -5h-12q5 0 5 -10q6 -11 10 -15l11 -26l15 -26q5 -10 15 -20q16 -31 36 -36q21 -15 56 -15v-21l11 -5q5 0 5 -5q20 0 30 5l6 -5q-6 -20 -47 -41l-40 -15v-11q0 -5 -3 -15t-3 -25q-10 -57 -15 -62q26 -6 41 -5
q10 0 41 10l41 10q15 -10 25 -25v-15l16 -6v-20l-5 -6l5 -10h15q31 0 36 36q41 16 61 46q21 26 21 72l-5 5q-21 36 -21 46q-15 31 -15 41q10 -15 30 -15h6l26 5l-16 25v6l20 -21l-10 -26l26 16l15 -5q16 5 26 30h-10v26l-16 -10l-5 5v5q-15 0 -20 5q-6 0 -6 11v4
q-36 21 -46 21v-21v-10h-5q-25 31 -56 31h-20q-11 10 -21 10h-10v16l-10 5q0 5 -3 15t-3 20q-5 21 -15 32l5 10h-20q-10 36 -21 35l5 26v20l-15 6q-26 0 -26 -26l16 -31q-10 -20 -10 -25q0 -16 5 -21l-5 -10q-10 -10 -11 -20v-6l-46 -35q-5 0 -5 10v10v10q0 16 -15 36l15 -5
q16 0 26 36v20q0 21 -6 26q11 0 11 25q56 11 56 72q0 16 -15 46l-10 10h5q15 -26 30 -25q6 0 16 10q5 10 5 21q0 15 -11 25l-4 5v6q20 10 20 15q5 5 5 15v31q-51 10 -72 10q-225 0 -363 -215zM650 305v20q0 -5 11 -15zM676 238v16q0 10 5 15v-31h20v5v-5h6q10 0 15 5l10 -5
q16 -5 16 -15q0 -5 -6 -11h-10q-20 0 -30.5 -10t-15.5 -10l-5 5q20 0 20 21v15h-15l-5 5h-5zM758 207q5 -5 10 -5v-10q-5 -10 -5 -15v10q-5 5 -5 20zM891 141q0 -16 15 -31q10 -10 26 -10l10 -5q10 0 10 -5q-15 51 -25 56q-16 16 -31 25q0 -10 -5 -20v-10z" />
    <glyph glyph-name="u1F304" unicode="&#x1f304;"
d="M0 -7v672q0 24 17.5 41.5t41.5 17.5h829q25 0 42 -17.5t17 -41.5v-672q0 -24 -17 -41.5t-42 -17.5h-829q-24 0 -41.5 17.5t-17.5 41.5zM79 13h789v632h-789v-632zM158 92v54l142 185l97 -80l182 276l210 -218v-217h-631zM158 486q0 33 23 56.5t57 23.5q33 0 56 -23.5
t23 -56.5t-23 -56t-56 -23q-34 0 -57 23t-23 56z" />
    <glyph glyph-name="u1F310" unicode="&#x1f310;" horiz-adv-x="1228"
d="M307 -115q0 51 51 51h205v61q-127 16 -235 113q-11 10 -11 36q0 21 11 31q15 15 30 15q21 0 36 -15q72 -72 169 -87h102q98 15 170 87q92 92 92 220t-92 220l-31 36l138 133q10 15 30.5 15t31.5 -15q15 -10 15 -30.5t-15 -30.5l-72 -77q87 -113 87 -251q0 -159 -118 -287
q-107 -97 -236 -113v-61h206q51 0 51 -51t-51 -51h-513q-51 0 -51 51zM364 396.5q0 102.5 74 177t176.5 74.5t176.5 -74.5t74 -177t-74 -176.5t-176.5 -74t-176.5 74t-74 176.5z" />
    <glyph glyph-name="u1F381" unicode="&#x1f381;"
d="M0 230v198q0 8 6 14t14 6h272q-29 0 -54 10.5t-44 29.5t-30 44t-11 53.5t11 54t30 44t44 29.5t54 11q30 0 57.5 -12.5t45.5 -35.5l79 -102l79 102q18 23 45 35.5t58 12.5q28 0 53.5 -11t44.5 -29.5t30 -44t11 -54t-11 -53.5t-30 -44t-44.5 -29.5t-53.5 -10.5h271
q9 0 14.5 -6t5.5 -14v-198q0 -8 -5.5 -13.5t-14.5 -5.5h-59v-218q0 -24 -17 -41.5t-42 -17.5h-671q-24 0 -41.5 17.5t-17.5 41.5v218h-59q-8 0 -14 5.5t-6 13.5zM232 586q0 -24 17.5 -41.5t42.5 -17.5h119l-77 99q-6 5 -16.5 12t-25.5 7q-25 0 -42.5 -17.5t-17.5 -41.5z
M375 45q0 -16 11.5 -27.5t28.5 -11.5h118q16 0 28 11.5t12 27.5v403h-198v-403zM536 527h120q24 0 42 17.5t18 41.5t-18 41.5t-42 17.5q-16 0 -26.5 -7t-15.5 -12z" />
    <glyph glyph-name="u1F3A4" unicode="&#x1f3a4;" horiz-adv-x="670"
d="M635 438q8 0 14 -6t6 -14v-138q0 -93 -69 -165t-201 -83v-132h130q8 0 14 -6t6 -14v-60q0 -8 -6 -14t-14 -6h-360q-8 0 -14 6t-6 14v60q0 8 6 14t14 6h130v132q-132 11 -201 83t-69 165v138q0 8 6 14t14 6h30q8 0 14 -6t6 -14v-138q0 -28 12 -57t38.5 -58t78 -47
t121.5 -18t121.5 18t78 47t38.5 58t12 57v138q0 8 6 14t14 6h30zM335 200q-79 0 -114.5 25t-35.5 55v158h300v-158q0 -30 -35.5 -55t-114.5 -25zM485 720v-212h-300v212q0 30 35.5 55t114.5 25t114.5 -25t35.5 -55z" />
    <glyph glyph-name="u1F3A7" unicode="&#x1f3a7;"
d="M0 309q0 57 19.5 110t52.5 99t79 83.5t98.5 65t110 42.5t114.5 15t114 -15t110 -42.5t98.5 -65t78.5 -83.5t52.5 -99t19.5 -110q0 -92 -38 -174l-13 -29l-85 -13q-14 -51 -55.5 -85t-97.5 -34v-20q0 -8 -6 -14t-14 -6h-40q-9 0 -14 6t-5 14v355q0 8 5 14t14 6h40
q8 0 14 -6t6 -14v-19q44 0 79.5 -22t56.5 -57l20 2q15 45 15 96q0 61 -32.5 115t-84 94t-114.5 64t-124 24t-124.5 -24t-114.5 -64t-83.5 -94t-32.5 -115q0 -48 15 -96l20 -2q21 35 56 57t79 22v19q0 8 6 14t14 6h40q9 0 14 -6t5 -14v-355q0 -8 -5 -14t-14 -6h-40
q-8 0 -14 6t-6 14v20q-55 0 -96.5 34t-55.5 85l-85 13l-14 29q-38 82 -38 174z" />
    <glyph glyph-name="u1F3C6" unicode="&#x1f3c6;" horiz-adv-x="930"
d="M524 82v-65q71 -8 117 -32t46 -55q0 -37 -65 -63.5t-157 -26.5t-157 26.5t-65 63.5q0 31 46 55t117 32v65q0 50 -33 85t-112 87q-45 30 -69 47.5t-63.5 54.5t-60 72t-37 88.5t-16.5 115.5q0 14 10 24.5t25 10.5h172q21 39 81.5 66t161.5 27t161.5 -27t81.5 -66h172
q15 0 25 -10.5t10 -24.5q0 -62 -16.5 -115.5t-37 -88.5t-60 -72t-63.5 -54.5t-69 -47.5q-79 -52 -112 -87t-33 -85zM663 335q80 54 126 112t54 150h-126q-5 -157 -54 -262zM465 699q-39 0 -72 -6t-54 -15t-36 -20t-21.5 -20t-6.5 -16t6.5 -16t21.5 -20t36 -20t54 -15t72 -6
t72 6t54 15t36 20t21.5 20t6.5 16t-6.5 16t-21.5 20t-36 20t-54 15t-72 6zM87 597q8 -92 54 -150t126 -112q-49 105 -54 262h-126z" />
    <glyph glyph-name="u1F3C9" unicode="&#x1f3c9;" horiz-adv-x="868"
d="M0 470v96q0 17 11.5 28t28.5 11h166q-1 6 -1 13v12v2q0 27 2 45t8 28t16.5 14.5t28.5 4.5h348q17 0 28 -4.5t17 -14.5t8 -28t2 -45v-14q0 -6 -1 -13h166q17 0 28.5 -11t11.5 -28v-96q0 -33 -23 -67.5t-62.5 -65.5t-92.5 -55t-114 -33q-27 -5 -47.5 -21.5t-20.5 -36.5
q0 -18 9 -26.5t20 -15.5t20.5 -16t11.5 -27q3 -12 -1 -24q-2 -8 12.5 -12.5t35 -9.5t42 -11.5t33.5 -17.5q6 -5 9.5 -20.5t4.5 -33.5q1 -16 -3 -29.5t-15 -13.5h-506q-10 0 -14.5 13.5t-3.5 29.5q1 18 5 33.5t10 20.5q11 11 32.5 17.5t42 11.5t35 9.5t12.5 12t-2 12.5v12
q1 18 11 27t21.5 16t20.5 15.5t9 26.5q0 20 -20.5 36.5t-47.5 21.5q-60 10 -113.5 34t-93 54.5t-62.5 65t-23 67.5zM79 470q0 -11 12 -28t34.5 -36t55 -37t72.5 -31q-13 41 -23 90t-17 98h-134v-56zM616 338q40 13 72 31t54.5 37t34.5 36t12 28v56h-134q-7 -49 -17 -98
t-22 -90z" />
    <glyph glyph-name="u1F44D" unicode="&#x1f44d;" horiz-adv-x="824"
d="M0.5 168q-1.5 59 2 118t13.5 110q47 3 98.5 3t94.5 -10q7 -40 11 -96t5.5 -116t0.5 -116.5t-5 -98.5q-19 -3 -43.5 -3.5t-51.5 1t-53 2t-47 0.5q-10 40 -17 93.5t-8.5 112.5zM96 41q0 -17 11.5 -28.5t28.5 -11.5t28 11.5t11 28.5q0 15 -11 26.5t-28 11.5t-28.5 -11.5
t-11.5 -26.5zM253 368q23 10 37 20t25.5 22.5t24 27.5t32.5 36q16 17 29.5 28t24.5 21t20 21t18 27q17 31 22.5 68.5t13.5 71.5q0 7 7 12q20 3 37 -4t29.5 -18.5t20.5 -27.5t11 -29q7 -35 -1 -63t-20 -53l-24 -49q-11 -24 -12 -50q23 -10 55 -10.5t66.5 1.5t67 2t55 -9
t30 -30.5t-5.5 -63.5q0 -2 -2 -5l-6 -8q-3 -5 -5 -10l-2 -3q12 -11 17 -24t5 -21q1 -41 -34 -72q11 -15 12 -32.5t-4 -33.5t-15 -28t-23 -18q6 -36 -6.5 -61.5t-37 -40.5t-59.5 -21.5t-73 -6.5t-76.5 5.5t-70.5 14.5q-21 7 -41 15l-41 15q-20 8 -43 12.5t-48 -0.5
q2 41 2.5 89.5t-1 98.5t-4.5 97.5t-7 86.5z" />
    <glyph glyph-name="u1F44E" unicode="&#x1f44e;" horiz-adv-x="824"
d="M1 410q-1 22 8 39.5t26 32.5q-10 15 -11 32.5t4 33.5t15 28t22 18q-6 36 6.5 61.5t37.5 40.5t59.5 21.5t72.5 6.5t76.5 -5.5t70.5 -14.5q21 -7 41 -15t41 -15.5t43.5 -11.5t47.5 1q-2 -41 -2.5 -90t1 -99t4 -97.5t8.5 -86.5q-24 -11 -38 -21t-25 -22t-23.5 -27t-32.5 -35
q-16 -18 -29 -29l-24 -21q-12 -10 -21.5 -20.5t-18.5 -27.5q-17 -31 -21.5 -68.5t-14.5 -71.5q0 -9 -7 -12q-21 -3 -37.5 4t-29 18.5t-20.5 26.5t-11 30q-6 35 1.5 63t20 53t23.5 49.5t12 50.5q-22 9 -54.5 9t-67 -1.5t-66.5 -1.5t-54.5 9t-30.5 30.5t5 62.5q1 1 4 6l6 9
q2 4 3 9l2 3q-11 11 -16.5 24t-5.5 21zM598 597.5q1 56.5 5 98.5q19 2 44.5 2.5t52 0t52.5 -1.5t47 -1q10 -40 16.5 -93.5t8 -112t-2 -118t-13.5 -110.5q-47 -4 -98 -4t-95 11q-7 40 -11 96t-5.5 116t-0.5 116.5zM649 618q0 -16 12 -28t28 -12t27.5 12t11.5 28t-11.5 27.5
t-27.5 11.5t-28 -11.5t-12 -27.5z" />
    <glyph glyph-name="u1F464" unicode="&#x1f464;" horiz-adv-x="970"
d="M751 78q94 -34 149 -67t55 -56v-105h-940v105q0 23 55 56t149 67q93 34 128 69t35 95q0 20 -10 31.5t-24 31.5t-21 58q-2 12 -9 17.5t-14.5 8t-14 17t-8.5 43.5q0 15 4.5 25.5t8.5 13.5l5 3q-9 50 -13 88q-2 21 6 47.5t27.5 55.5t62.5 48.5t103 19.5t103 -19.5
t62.5 -48.5t27.5 -55.5t6 -47.5l-13 -88q18 -8 18 -42q-2 -29 -8.5 -43.5t-14 -17t-14.5 -8t-9 -17.5q-7 -38 -21 -58t-24 -31.5t-10 -31.5q0 -60 35 -95t128 -69z" />
    <glyph glyph-name="u1F465" unicode="&#x1f465;" horiz-adv-x="1030"
d="M1015 -125h-225v144q0 52 -30 78.5t-154 85.5q41 29 41 81q0 14 -13.5 31.5t-18.5 49.5q-1 8 -5.5 11.5t-8.5 5t-8.5 11.5t-5.5 29q0 10 2.5 17t5.5 9l3 2q-6 33 -8 59q-1 14 3.5 31.5t16.5 37t38 32.5t62 13t62 -13t37.5 -32.5t16 -37t3.5 -31.5l-7 -59q10 -6 10 -28
q-1 -19 -5.5 -29t-8.5 -11.5t-8.5 -5t-5.5 -11.5q-5 -32 -18.5 -49.5t-13.5 -31.5q0 -40 21 -63.5t77 -46.5q61 -25 90 -41t41 -36q5 -8 8.5 -58.5t4.5 -96.5zM526 127q89 -36 136.5 -64t47.5 -56v-132h-695v176q0 20 15.5 36t28.5 22.5t35 15.5q3 1 5 2q75 30 103 61t28 85
q0 19 -18.5 42t-25.5 66q-2 10 -7.5 15t-11.5 7t-11 15t-7 39q0 13 3.5 22.5t7.5 12.5l4 2q-8 45 -11 79q-2 19 4.5 42t22 49t50.5 43.5t83 17.5t82.5 -17.5t50 -43.5t22 -49t4.5 -42l-10 -79q14 -7 14 -37q-2 -26 -7.5 -39t-11 -15t-11 -7t-7.5 -15q-7 -43 -25 -66t-18 -42
q0 -54 28 -85t102 -61z" />
    <glyph glyph-name="u1F4A1" unicode="&#x1f4a1;" horiz-adv-x="670"
d="M473 10h-265q0 59 -21.5 114.5t-50.5 97.5l-59 86q-29 43 -47 97t-14 112q3 43 14.5 81.5t36 76t59 64.5t88.5 44t121 17t121 -17t88.5 -44t59 -64.5t36 -76t14.5 -81.5q4 -59 -12.5 -113t-43.5 -98l-56 -86q-29 -44 -49 -98t-20 -112zM203 -159v99h264v-99
q-60 -42 -132 -41q-72 -1 -132 41z" />
    <glyph glyph-name="u1F4B0" unicode="&#x1f4b0;" horiz-adv-x="803"
d="M312 349q17 20 66 23v-84q-43 3 -59.5 10t-16.5 28q0 13 10 23zM420 108v91q48 -4 63 -10.5t15 -24.5q0 -45 -78 -56zM490 351q22 -12 29 -19.5t7 -17.5l8 -4l45 90l-7 5q-10 -7 -13 -7q-8 0 -13 3q-90 35 -126 35v18q0 14 20 18v9h-79v-9q17 -4 17 -18v-15
q-73 -3 -113 -35.5t-40 -87.5t33.5 -78.5t119.5 -31.5v-96q-56 5 -86.5 23.5t-30.5 40.5l-7 4l-42 -94l7 -4q9 5 12 5q7 0 9 -3q72 -36 138 -40v-18q0 -15 -17 -20v-9h79v9q-20 5 -20 20v18q72 4 115.5 38.5t43.5 88.5q0 101 -149 115h-10v87q36 -2 70 -20zM531 532
q89 -37 143.5 -118.5t54.5 -181.5q0 -136 -95.5 -231.5t-231.5 -95.5t-231.5 95.5t-95.5 231.5q0 100 54.5 181.5t142.5 118.5l-81 179q0 25 28 25h366q27 0 27 -25z" />
    <glyph glyph-name="u1F4B5" unicode="&#x1f4b5;" horiz-adv-x="1293"
d="M79 291q76 0 149 24t134.5 62t121.5 85l120 92q61 46 122.5 84t134.5 62.5t149 24.5l105 -227l90 -192q-103 0 -199.5 -42t-176.5 -102l-160 -122q-80 -62 -182.5 -110.5t-212.5 -57.5l-98 210zM199 225l63 -137l64 -136q132 26 283 137q-70 27 -107 103q-32 72 -20 168
q-154 -112 -283 -135zM1085 372l-68 145l-59 128q-136 -25 -284 -137q67 -24 106 -103q34 -75 20 -167q151 111 285 134zM428 68q-4 6 -10 18t-8 18q-5 -3 -10 -3q1 -11 6 -40q15 3 22 7zM455 90q4 6 11 21q-24 7 -38 13q0 -2 -1.5 -3.5t-3 -3.5t-1.5 -3zM371 68q1 3 6 15.5
t8 18.5q-5 3 -9 6q-4 -6 -13 -15t-13 -14q12 -10 21 -11zM468 148q-3 14 -6 22h-1q-15 -10 -35 -20v-1q3 -3 3 -10q21 3 39 9zM329 106q27 10 37 15q-2 8 -2 9q-14 -1 -43 -1q1 -11 8 -23zM416 161q4 5 12 17l12 17q-10 9 -19 10q-10 -25 -13 -39q1 0 4 -2t4 -3zM365 145
q3 3 5 10l-16 13l-15 12q-8 -8 -11 -20q3 -1 11.5 -4.5t14.5 -5.5t11 -5zM392 168q0 7 -2 20t-2 20q-8 -2 -23 -7q3 -3 5 -9t4 -10q-2 4 -4 10t-5 9q3 -6 8.5 -18.5t8.5 -18.5q2 1 10 4zM872 404q-8 22 -43 94q-13 -7 -19 -12q8 -16 22 -47l20 -47q12 8 20 12zM960 446
q-5 13 -20.5 44t-23.5 49q-4 -1 -10.5 -4.5t-9.5 -4.5l44 -91q11 3 20 7zM916 426q-6 15 -14 30l-16 35l-15 29q-3 -2 -9 -5l-10 -5q26 -51 44 -92q4 1 11 4t9 4z" />
    <glyph glyph-name="u1F4C2" unicode="&#x1f4c2;"
d="M0 129v536q0 24 17.5 41.5t41.5 17.5h356q24 0 41.5 -17.5t17.5 -41.5t17 -41.5t42 -17.5h227q24 0 41.5 -18t17.5 -42v-114h-632q-19 0 -36.5 -6.5t-33.5 -17.5t-27.5 -26t-17.5 -33zM22 -66l126 391q4 11 16.5 19.5t23.5 8.5h759l-133 -389q-3 -12 -16 -21t-24 -9h-752
z" />
    <glyph glyph-name="u1F4C4" unicode="&#x1f4c4;" horiz-adv-x="631"
d="M0 -7v672q0 24 17.5 41.5t41.5 17.5h230v-283q0 -25 17.5 -42t41.5 -17h284v-389q0 -24 -17.5 -41.5t-41.5 -17.5h-514q-24 0 -41.5 17.5t-17.5 41.5zM348 441v280h4l276 -277v-3h-280z" />
    <glyph glyph-name="u1F4C5" unicode="&#x1f4c5;" horiz-adv-x="789"
d="M0 -7v578q0 24 17.5 41.5t41.5 17.5h38v-73q0 -29 20.5 -49.5t49.5 -20.5h16q30 0 51 20.5t21 49.5v73h61v-73q0 -29 20.5 -49.5t49.5 -20.5h17q30 0 50.5 20.5t20.5 49.5v73h61v-73q0 -29 21 -49.5t50 -20.5h16q30 0 50.5 20.5t20.5 49.5v73h38q24 0 41 -17.5t17 -41.5
v-578q0 -24 -17 -41.5t-41 -17.5h-672q-24 0 -41.5 17.5t-17.5 41.5zM79 13h632v419h-632v-419zM136 557v135q0 13 9.5 22.5t21.5 9.5h16q14 0 23 -9.5t9 -22.5v-135q0 -12 -9 -21t-23 -9h-16q-12 0 -21.5 9t-9.5 21zM186 101q0 37 21 61t46 42l46 33q21 16 21 38
q0 21 -12 30.5t-30 9.5q-12 0 -22 -4.5t-17 -12.5q-4 -4 -7.5 -8t-6.5 -9l-36 24q8 14 22 28q11 12 28.5 20.5t42.5 8.5q37 0 64.5 -22t27.5 -62q0 -22 -9.5 -38t-24.5 -29.5t-32 -24.5l-31 -20q-15 -11 -25 -22.5t-10 -26.5h97v36h44v-77h-195q-1 7 -1.5 13t-0.5 12z
M356 557v135q0 13 9 22.5t21 9.5h17q13 0 22.5 -9.5t9.5 -22.5v-135q0 -12 -9.5 -21t-22.5 -9h-17q-12 0 -21 9t-9 21zM418 282v74h197v-35l-123 -245h-54l113 223q3 9 6 12l3 4v1q-3 0 -5 -1h-14h-79v-33h-44zM575 557v135q0 13 9 22.5t22 9.5h16q13 0 22.5 -9.5t9.5 -22.5
v-135q0 -12 -9.5 -21t-22.5 -9h-16q-13 0 -22 9t-9 21z" />
    <glyph glyph-name="u1F4C8" unicode="&#x1f4c8;" horiz-adv-x="1228"
d="M205 -64v666h102v-374l251 358l220 -276l113 77l61 -82l-194 -134l-195 246l-256 -363v-16h666v-102h-768z" />
    <glyph glyph-name="u1F4CA" unicode="&#x1f4ca;" horiz-adv-x="1228"
d="M256 -64v307h205v-307h-205zM512 -59v712h205v-712h-205zM768 -59v507h205v-507h-205z" />
    <glyph glyph-name="u1F4CC" unicode="&#x1f4cc;"
d="M1 419q4 40 22 85t49.5 87t69 72t75.5 45.5t72 15t59 -19.5q27 -19 37 -52.5t6 -74.5l148 -110q55 30 107 35t89 -23q26 -20 39 -53t12 -74t-15 -88t-42 -93l212 -203q5 -5 6 -12.5t-4 -12.5q-5 -9 -16 -9q-3 0 -9 2l-255 146q-37 -39 -77.5 -66.5t-79.5 -40t-74.5 -10
t-63.5 23.5q-36 27 -46.5 78t3.5 112l-148 112q-38 -16 -73 -16t-61 19q-25 19 -35.5 52t-6.5 73zM84 374q1 -8 9 -13q8 -8 23 -8q16 0 33 8.5t35 23t35.5 33t33.5 39.5q5 7 4 14.5t-9 13.5q-6 5 -14 4t-13 -8q-39 -52 -69 -71.5t-36 -17.5q-7 5 -14.5 4t-13.5 -8
q-5 -6 -4 -14zM231 322l178 -134q7 -4 12 -4q11 0 16 8q5 6 4 14t-7 13l-172 128q-16 -15 -31 -25zM414 83q-11 -17 4 -29q14 -10 35 -10q20 0 43 10.5t46.5 28.5t47 41t43.5 49q5 8 4 15.5t-9 13.5q-6 5 -14 3.5t-13 -8.5q-25 -33 -50.5 -57t-47.5 -37.5t-38.5 -17.5
t-23.5 2q-6 5 -14 3.5t-13 -7.5z" />
    <glyph glyph-name="u1F4CE" unicode="&#x1f4ce;" horiz-adv-x="965"
d="M259 -192q-58 0 -110 26.5t-84.5 72t-45.5 100t6.5 116t72.5 114.5l222 222l273 274q37 37 83.5 51t92.5 2q45 -12 79 -46t46 -79q12 -46 -2 -92.5t-51 -83.5l-474 -473q-24 -24 -52 -37t-60 -10t-56 27q-19 19 -25.5 46t4.5 60t40 62l333 332q11 10 25 10t24 -10t10 -24
t-10 -25l-332 -333q-21 -21 -25.5 -40.5t5.5 -27.5q9 -9 23 -7q25 3 47 26l473 474q50 52 35 108q-8 27 -28 47t-47 28q-57 16 -108 -35l-274 -273l-222 -222q-44 -44 -56.5 -94t1 -91t45.5 -73t73 -45.5t91 -1t94 56.5l495 496q10 10 25 10t25 -10t10 -25t-10 -25
l-496 -495q-83 -83 -185 -83z" />
    <glyph glyph-name="u1F4D6" unicode="&#x1f4d6;" horiz-adv-x="930"
d="M355 186v-67l-200 80v67zM355 394v-68l-200 80v68zM846 746q26 10 47.5 -6t21.5 -40v-640q0 -33 -31 -46l-400 -160q-2 0 -5.5 -1.5t-7 -2t-6.5 -0.5t-6.5 0.5t-7 2t-5.5 1.5l-400 160q-31 13 -31 46v640q0 24 21.5 40t47.5 6l381 -152zM415 -48v561l-320 128v-561z
M835 80v561l-320 -128v-561zM775 266v-67l-200 -80v67zM775 474v-68l-200 -80v68z" />
    <glyph glyph-name="u1F50D" unicode="&#x1f50d;" horiz-adv-x="820"
d="M787 27q34 -34 7 -61l-47 -47q-14 -14 -33.5 -14t-33.5 14l-190 190q-72 -42 -156 -42q-128 0 -223.5 95.5t-95.5 223.5t90.5 218.5t218.5 90.5t223.5 -95.5t95.5 -223.5q0 -84 -45 -160zM110 386q0 -88 68 -156t156 -68t151 63t63 151t-68 156t-156 68t-151 -63
t-63 -151z" />
    <glyph glyph-name="u1F512" unicode="&#x1f512;" horiz-adv-x="730"
d="M655 425q21 0 40.5 -19.5t19.5 -40.5v-390q0 -21 -14 -40t-34 -25l-59 -20q-49 -15 -98 -15h-290q-49 0 -98 15l-59 20q-20 6 -34 25t-14 40v390q0 22 15 41t35 19h100v70q0 110 51 170t149 60t149 -60t51 -170v-70h90zM265 515v-90h200v90q0 53 -27 81.5t-73 28.5
t-73 -28.5t-27 -81.5z" />
    <glyph glyph-name="u1F513" unicode="&#x1f513;" horiz-adv-x="730"
d="M655 400q21 0 40.5 -19.5t19.5 -40.5v-390q0 -21 -14 -40t-34 -25l-59 -20q-49 -15 -98 -15h-290q-49 0 -98 15l-59 20q-20 6 -34 25t-14 40v390q0 22 15 41t35 19h400v140q0 53 -27 81.5t-73 28.5t-73 -28.5t-27 -81.5v-40h-100v20q0 110 51 170t149 60t149 -60t51 -170
v-120h90z" />
    <glyph glyph-name="u1F516" unicode="&#x1f516;" horiz-adv-x="631"
d="M0 -9v675q0 18 9.5 32t26.5 21q5 3 10.5 4t11.5 1h516q5 0 11 -1t11 -4q17 -7 26.5 -21t9.5 -32v-675q0 -18 -9.5 -32t-26.5 -21q-16 -7 -33.5 -3.5t-28.5 16.5l-218 218l-218 -218q-12 -13 -29 -16.5t-33 3.5q-17 8 -26.5 21.5t-9.5 31.5z" />
    <glyph glyph-name="u1F517" unicode="&#x1f517;"
d="M0 92v474q0 32 12.5 61t33.5 50t50 34t62 13h299q-1 -8 -2 -14.5t-1 -15.5v-45q0 -12 3 -24h-299q-24 0 -41.5 -17.5t-17.5 -41.5v-474q0 -24 17.5 -41.5t41.5 -17.5h553q24 0 41 17.5t17 41.5v175q22 -16 47 -25.5t52 -10.5v-139q0 -33 -12.5 -61t-34 -50t-50 -34.5
t-60.5 -12.5h-553q-33 0 -62 12.5t-50 34.5t-33.5 50t-12.5 61zM356 202.5q0 12.5 8 21.5l396 397h-138q-13 0 -21 8t-8 21v44q-1 12 7.5 21t21.5 9h296q11 0 20 -9t9 -21v-44v-252q0 -12 -9 -21t-20 -8h-44q-13 0 -21.5 8.5t-8.5 20.5v138l-397 -395q-8 -9 -20.5 -9
t-21.5 9l-41 41q-8 8 -8 20.5z" />
    <glyph glyph-name="u1F525" unicode="&#x1f525;" horiz-adv-x="710"
d="M0 159q0 62 32 126.5t87 117.5q-12 -79 0.5 -127t32.5 -75q23 -32 55 -47q-25 111 -14 215q4 44 16 92t35.5 95t61.5 90t94 78q-24 -52 -23 -95t11 -75q12 -37 36 -67l32 -39q16 -20 27 -45.5t17 -59.5t6 -82q-9 21 -28 33.5t-43 12.5q-34 0 -56.5 -23t-22.5 -56
q0 -17 5.5 -31.5t18 -26.5t32 -18t46.5 -6q46 4 81 32q14 13 27 31.5t21.5 45.5t10.5 63t-5 85h-1q54 -53 86.5 -117.5t32.5 -126.5q0 -56 -28 -98.5t-76.5 -70t-113 -42t-138 -14.5t-138 14.5t-113 42t-76.5 70t-28 98.5z" />
    <glyph glyph-name="u1F554" unicode="&#x1f554;" horiz-adv-x="950"
d="M475 760q125 0 231 -61.5t167.5 -167.5t61.5 -231t-61.5 -231t-167.5 -167.5t-231 -61.5t-231 61.5t-167.5 167.5t-61.5 231t61.5 231t167.5 167.5t231 61.5zM475 -60q149 0 254.5 105.5t105.5 254.5t-105.5 254.5t-254.5 105.5t-254.5 -105.5t-105.5 -254.5
t105.5 -254.5t254.5 -105.5zM510 560v-246l150 -149l-50 -50l-170 170v275h70z" />
    <glyph glyph-name="u1F6AB" unicode="&#x1f6ab;" horiz-adv-x="950"
d="M475 760q125 0 231 -61.5t167.5 -167.5t61.5 -231t-61.5 -231t-167.5 -167.5t-231 -61.5t-231 61.5t-167.5 167.5t-61.5 231t61.5 231t167.5 167.5t231 61.5zM723 547h-1h1zM125 300q0 -125 79 -222l492 493q-97 79 -221 79q-145 0 -247.5 -102.5t-102.5 -247.5zM227 53
l1 -1zM475 -50q145 0 247.5 102.5t102.5 247.5q0 124 -79 221l-492 -492q97 -79 221 -79z" />
  </font>
</defs>
</svg>
